img image001 image001 image001 image001 image001 image001 image001 image001 image001 image001 image001 image001 image001 image001 image001

Planets Sun Sun Sun
Статистика раздачи
Автор: Снежана | Размер: 1.09 ГБ | Добавлен: 24 июл 2013
Раздают: 37    Качают: 5
Скачать торрент
Скачать торрент
Описание торрента

СообщениеДобавлено: 24 июл 2013 

#77
Страна: СССР
Производство: Мосфильм
Жанр: комедия
Год выпуска: 1962
Продолжительность: 01:12:05

Перевод: не требуется
Оригинальная аудиодорожка: русский
Cубтитры: нет

Режиссер: Ролан Быков

В ролях: Семен Морозов, Владимир Ивашов, Валентин Буров, Татьяна Надеждина, Микаэла Дроздовская, Н.Батырева, В.Григорьева, Т.Карева, Виктор Хохряков, Валентин Зубков, Алексей Бахарь, Алексей Грибов, Зиновий Гердт, Эммануил Геллер, Рина Зеленая, Вера М.Орлова...

Описание:
У семи нянек, как известно, «дитя без глазу». Так и случилось поначалу в молодежной бригаде часового завода, которая взяла на воспитание «трудного» подростка.
Врожденные актерские данные паренька помогают ему довольно успешно водить своих «опекунов» за нос, ставить в смешное положение, доводя почти до отчаяния. В этом фильме с блеском раскрылся режиссерский талант молодого Ролана Быкова…





Исходник: DVD5 R5
Тип релиза: DVDRip-AVC
Контейнер: MKV

Видео: 688x570@736x570 (1.291:1), 25 fps, H264 ~ 1976 kbps avg, 0.202 bit/pixel
Аудио: 48 kHz, Dolby AC3 2.0, 192 kbps

Раздача от:
Общее
Полное имя : Sem.nyanek.1962.DVDRip-AVC_[Youtracker]_by_AVP Studio.mkv
Формат : Matroska
Версия формата : Version 2
Размер файла : 1,09 Гбайт
Продолжительность : 1 ч. 12 м.
Общий поток : 2170 Кбит/сек
Дата кодирования : UTC 2013-04-19 18:12:48
Программа кодирования : mkvmerge v5.0.1 ('Es ist Sommer') built on Nov 6 2011 16:23:40
Библиотека кодирования : libebml v1.2.2 + libmatroska v1.3.0

Видео
Идентификатор : 1
Формат : AVC
Формат/Информация : Advanced Video Codec
Профиль формата : High@L4.1
Параметр CABAC формата : Да
Параметр ReFrames формата : 11 кадров
Идентификатор кодека : V_MPEG4/ISO/AVC
Продолжительность : 1 ч. 12 м.
Битрейт : 1976 Кбит/сек
Ширина : 688 пикселей
Высота : 570 пикселей
Соотношение сторон : 1,291
Частота кадров : 25,000 кадров/сек
Цветовое пространство : YUV
Субдискретизация насыщенности : 4:2:0
Битовая глубина : 8 бит
Тип развёртки : Прогрессивная
Бит/(Пиксели*Кадры) : 0.202
Размер потока : 998 Мбайт (89%)
Библиотека кодирования : x264 core 119 r2106 07efeb4
Настройки программы : cabac=1 / ref=11 / deblock=1:-3:-2 / analyse=0x3:0x113 / me=umh / subme=9 / psy=1 / psy_rd=1.00:0.20 / mixed_ref=1 / me_range=32 / chroma_me=1 / trellis=1 / 8x8dct=1 / cqm=0 / deadzone=21,11 / fast_pskip=0 / chroma_qp_offset=-3 / threads=3 / sliced_threads=0 / nr=0 / decimate=0 / interlaced=0 / bluray_compat=0 / constrained_intra=0 / bframes=8 / b_pyramid=2 / b_adapt=2 / b_bias=0 / direct=3 / weightb=1 / open_gop=0 / weightp=2 / keyint=250 / keyint_min=25 / scenecut=40 / intra_refresh=0 / rc_lookahead=60 / rc=2pass / mbtree=1 / bitrate=1976 / ratetol=1.0 / qcomp=0.60 / qpmin=0 / qpmax=69 / qpstep=4 / cplxblur=20.0 / qblur=0.5 / ip_ratio=1.40 / aq=1:1.00
Default : Да
Forced : Нет

Аудио
Идентификатор : 2
Формат : AC-3
Формат/Информация : Audio Coding 3
Расширение режима : CM (complete main)
Идентификатор кодека : A_AC3
Продолжительность : 1 ч. 12 м.
Вид битрейта : Постоянный
Битрейт : 192 Кбит/сек
Каналы : 2 канала
Расположение каналов : Front: L R
Частота : 48,0 КГц
Битовая глубина : 16 бит
Метод сжатия : С потерями
Размер потока : 99,0 Мбайт (9%)
Default : Да
Forced : Нет





   Похожие торренты   Торрент   Размер 
В этой теме нет новых непрочитанных сообщений. Семь нянек (1962) DVDRip от Youtracker

9 | 7

743.41 МБ

В этой теме нет новых непрочитанных сообщений. Семь нянек (1962) DVDRip от PlanetaUA

101 | 20

1.08 ГБ

В этой теме нет новых непрочитанных сообщений. Семь шпаг мстителя / Sette spade del vendicatore (1962) DVDRip | SATKUR

129 | 8

1.39 ГБ

В этой теме нет новых непрочитанных сообщений. Сорок семь верных вассалов эпохи Гэнроку / Chushingura - Hana no maki yuki no maki (1962) DVDRip от Torrent-Xzona | P2

8 | 5

2.06 ГБ

В этой теме нет новых непрочитанных сообщений. Сорок семь верных вассалов эпохи Гэнроку / Chushingura - Hana no maki yuki no maki (1962) DVDRip-AVC от Тorrent-Хzona

8 | 5

2.58 ГБ

В этой теме нет новых непрочитанных сообщений. Семь морей до Кале / Seven seas to Calais (1962) TVRip

2 | 2

1.22 ГБ

В этой теме нет новых непрочитанных сообщений. Путь к причалу (1962) DVDRip от Youtracker

10 | 3

744.72 МБ




Вы не можете начинать темы
Вы не можете отвечать на сообщения
Вы не можете редактировать свои сообщения
Вы не можете удалять свои сообщения
Вы не можете добавлять вложения

Перейти:  
Для Мосгорсуда, Роскомнадзора и рекламодателей: mosgorsud-torrent[собачка]yandex.ru
 Вход
ppkBB3cker v.2 © 2008-2014 @ PPK
[ Time : 0.047s | 14 Queries | GZIP : Off ]

Торрент трекер RUTOR.IN, Не можете зайти на rutor.org? Какой новый адрес рутор? Какое зеркало рутор? Не работает rutor.org и зеркала? Тогда наш торрент специально для вас. Rutor.in неофициальное зеркало rutor. В случае если у Вас заблокирован rutor или вдруг Вы не можете на него зайти, то Вы без труда сможете скачать бесплатно и без рекламы последние новинки кино, игр, сериалов и прочего у нас, на Rutor.in. Не нужно использовать прокси, чтобы зайти на рутор, достаточно воспользоваться нашим ресурсом. Все новые фильмы, игры, сериалы, книги и музыка за 2013 и 2014 годы через торрент бесплатно. Скачивайте фильмы в хорошем качестве, игры для пк, xbox, playstation без регистрации. У нас вы найдете новые Зарубежные сериалы и Русские сериалы 2013, 2014, 2015 годов. Оставайтесь с нами, качайте любимые фильмы, игры, сериалы, книги и музыку.