img image001 image001 image001 image001 image001 image001 image001 image001 image001 image001 image001 image001 image001 image001 image001

Planets Sun Sun Sun
Статистика раздачи
Автор: Снежана | Размер: 7.94 ГБ | Добавлен: 24 июл 2013
Раздают: 38    Качают: 9
Скачать торрент
Скачать торрент
Описание торрента

СообщениеДобавлено: 24 июл 2013 

Самогонщики / Пес Барбос и необычный кросс / «Сто грамм» для храбрости




#77

Полная реставрация изображения и звука. Покадровая цифровая реставрация изображения, ремастеринг звука и авторинг проведены объединением «Крупный план».

Год выпуска: 1961 + 1976
Страна: СССР
Жанр: короткометражка, комедия
Продолжительность: 00:29:26 + 01:14:59
Перевод: Оригинал

Режиссер: Леонид Гайдай
Сценарий: Константин Бровин, Леонид Гайдай
Оператор: Константин Бровин
Композитор: Никита Богословский
Художник: Константин Степанов, Наталья Мешкова

В ролях: Евгений Моргунов (Бывалый), Георгий Вицин (Трус), Юрий Никулин (Балбес), Владимир Пицек (милиционер), Петр Феллер


Описание: Трус, Балбес и Бывалый решают поставить на широкую ногу изготовление самогона — и снова фиаско…

Что есть главное средство для поддержания мужской дружбы и просто для увлекательного времяпрепровождения? Правильно, это рыбалка. Трус, Балбес и Бывалый решили испытать эту радость жизни на себе, но на свою беду взяли они с собой пса Барбоса…


Премьера (мир): 8 января 1962
Релиз на DVD: 11 января 2011, «Парадиз Медиа», ...




Качество: BDRip
Формат: MKV
Видео кодек: AVC
Аудио кодеk: AC3
Видео: 1480x1080 (1.370:1), 23.976 fps, AVC, 9 398 Kbps
Аудио #1: AC3, 448 Kbps, 48.0 KHz, 6 ch
Аудио #2: DTS, 755 Kbps, 48.0 KHz, 6 ch


Режиссер: Борис Бушмелёв, Анатолий Маркелов, Георгий Щукин
Сценарий: Григорий Горин, Виктория Токарева, Николай Пушков
Оператор: Виталий Абрамов, Марк Дятлов, Николай Немоляев
Композитор: Карэн Хачатурян
Художник: Василий Щербак

В ролях: Игорь Ясулович (Ларичев), Юрий Кузьменков (Вася), Юрий Белов (таксист), Рина Зеленая (прохожая у метро), Владимир Басов (Ружевский), Михаил Светин (Панюков), Гоги Кавтарадзе (Гоги), Валентина Титова (Панюкова)


Описание: История про очень застенчивого человека, который, отправившись на первое свидание с любимой женщиной, решает для бодрости духа выпить «сто грамм»…

Зрители: СССР 22.6 млн
Премьера (мир): 23 мая 1977



Качество: BDRip
Формат: MKV
Видео кодек: AVC
Аудио кодеk: AC3
Видео: 1920x816 (2.35:1), 23.976 fps, AVC, 9 792 Kbps
Аудио #1: AC3, 448 Kbps, 48.0 KHz, 6 ch
Аудио #2: DTS, 755 Kbps, 48.0 KHz, 6 ch






General
Complete name : Samogonshiki.1961.BDRip.1080p.mkv
Format : Matroska
File size : 2.18 GiB
Duration : 29mn 26s
Overall bit rate : 10.6 Mbps
Encoded date : UTC 2013-04-19 21:39:21
Writing application : mkvmerge v6.1.0 ('Old Devil') built on Mar 2 2013 14:32:37
Writing library : libebml v1.3.0 + libmatroska v1.4.0

Video
ID : 1
Format : AVC
Format/Info : Advanced Video Codec
Format profile : High@L4.1
Format settings, CABAC : Yes
Format settings, ReFrames : 4 frames
Muxing mode : Container profile=Unknown@4.1
Codec ID : V_MPEG4/ISO/AVC
Duration : 29mn 26s
Bit rate : 9 398 Kbps
Width : 1 480 pixels
Height : 1 080 pixels
Display aspect ratio : 1.370
Frame rate : 23.976 fps
Color space : YUV
Chroma subsampling : 4:2:0
Bit depth : 8 bits
Scan type : Progressive
Bits/(Pixel*Frame) : 0.245
Stream size : 1.89 GiB (87%)
Writing library : x264 core 130 r2273 b3065e6
Encoding settings : cabac=1 / ref=4 / deblock=1:-1:-1 / analyse=0x3:0x133 / me=umh / subme=10 / psy=1 / psy_rd=1.00:0.00 / mixed_ref=1 / me_range=48 / chroma_me=1 / trellis=2 / 8x8dct=1 / cqm=0 / deadzone=21,11 / fast_pskip=0 / chroma_qp_offset=-2 / threads=6 / lookahead_threads=1 / sliced_threads=0 / nr=0 / decimate=1 / interlaced=0 / bluray_compat=0 / constrained_intra=0 / bframes=10 / b_pyramid=2 / b_adapt=2 / b_bias=0 / direct=3 / weightb=1 / open_gop=0 / weightp=2 / keyint=240 / keyint_min=24 / scenecut=40 / intra_refresh=0 / rc=2pass / mbtree=0 / bitrate=9398 / ratetol=1.0 / qcomp=1.00 / qpmin=0 / qpmax=51 / qpstep=4 / cplxblur=20.0 / qblur=0.5 / ip_ratio=1.40 / pb_ratio=1.30 / aq=1:1.00
Color primaries : BT.709-5, BT.1361, IEC 61966-2-4, SMPTE RP177
Transfer characteristics : BT.709-5, BT.1361
Matrix coefficients : BT.709-5, BT.1361, IEC 61966-2-4 709, SMPTE RP177

Audio #1
ID : 2
Format : AC-3
Format/Info : Audio Coding 3
Mode extension : CM (complete main)
Codec ID : A_AC3
Duration : 29mn 26s
Bit rate mode : Constant
Bit rate : 448 Kbps
Channel(s) : 6 channels
Channel positions : Front: L C R, Side: L R, LFE
Sampling rate : 48.0 KHz
Bit depth : 16 bits
Stream size : 94.4 MiB (4%)
Language : Russian

Audio #2
ID : 3
Format : DTS
Format/Info : Digital Theater Systems
Codec ID : A_DTS
Duration : 29mn 26s
Bit rate mode : Constant
Bit rate : 755 Kbps
Channel(s) : 6 channels
Channel positions : Front: L C R, Side: L R, LFE
Sampling rate : 48.0 KHz
Bit depth : 24 bits
Stream size : 159 MiB (7%)
Language : Russian


General
Complete name : 100.gramm.1976.BDRip.1080p.mkv
Format : Matroska
File size : 5.76 GiB
Duration : 1h 14mn
Overall bit rate : 11.0 Mbps
Encoded date : UTC 2013-04-20 05:55:45
Writing application : mkvmerge v6.1.0 ('Old Devil') built on Mar 2 2013 14:32:37
Writing library : libebml v1.3.0 + libmatroska v1.4.0

Video
ID : 1
Format : AVC
Format/Info : Advanced Video Codec
Format profile : High@L4.1
Format settings, CABAC : Yes
Format settings, ReFrames : 4 frames
Muxing mode : Container profile=Unknown@4.1
Codec ID : V_MPEG4/ISO/AVC
Duration : 1h 14mn
Bit rate : 9 792 Kbps
Width : 1 920 pixels
Height : 816 pixels
Display aspect ratio : 2.35:1
Frame rate : 23.976 fps
Color space : YUV
Chroma subsampling : 4:2:0
Bit depth : 8 bits
Scan type : Progressive
Bits/(Pixel*Frame) : 0.261
Stream size : 5.02 GiB (87%)
Writing library : x264 core 130 r2273 b3065e6
Encoding settings : cabac=1 / ref=4 / deblock=1:-1:-1 / analyse=0x3:0x133 / me=umh / subme=10 / psy=1 / psy_rd=1.00:0.00 / mixed_ref=1 / me_range=48 / chroma_me=1 / trellis=2 / 8x8dct=1 / cqm=0 / deadzone=21,11 / fast_pskip=0 / chroma_qp_offset=-2 / threads=6 / lookahead_threads=1 / sliced_threads=0 / nr=0 / decimate=1 / interlaced=0 / bluray_compat=0 / constrained_intra=0 / bframes=10 / b_pyramid=2 / b_adapt=2 / b_bias=0 / direct=3 / weightb=1 / open_gop=0 / weightp=2 / keyint=240 / keyint_min=24 / scenecut=40 / intra_refresh=0 / rc=2pass / mbtree=0 / bitrate=9792 / ratetol=1.0 / qcomp=1.00 / qpmin=0 / qpmax=51 / qpstep=4 / cplxblur=20.0 / qblur=0.5 / ip_ratio=1.40 / pb_ratio=1.30 / aq=1:1.00
Color primaries : BT.709-5, BT.1361, IEC 61966-2-4, SMPTE RP177
Transfer characteristics : BT.709-5, BT.1361
Matrix coefficients : BT.709-5, BT.1361, IEC 61966-2-4 709, SMPTE RP177

Audio #1
ID : 2
Format : AC-3
Format/Info : Audio Coding 3
Mode extension : CM (complete main)
Codec ID : A_AC3
Duration : 1h 14mn
Bit rate mode : Constant
Bit rate : 448 Kbps
Channel(s) : 6 channels
Channel positions : Front: L C R, Side: L R, LFE
Sampling rate : 48.0 KHz
Bit depth : 16 bits
Stream size : 240 MiB (4%)
Language : Russian

Audio #2
ID : 3
Format : DTS
Format/Info : Digital Theater Systems
Codec ID : A_DTS
Duration : 1h 14mn
Bit rate mode : Constant
Bit rate : 755 Kbps
Channel(s) : 6 channels
Channel positions : Front: L C R, Side: L R, LFE
Sampling rate : 48.0 KHz
Bit depth : 24 bits
Stream size : 405 MiB (7%)
Language : Russian


★ В фильме в котел самогонного аппарата Балбес загружает сахар. На самом деле туда следует заливать брагу.

★ В фильме из крана самогон льется рекой, а снег, в котором лежит змеевик — даже и не тает.

★ В огромной бутыли, с которой Трус слоняется по избушке, нет мутной жидкости. Просто стенки бутыли изнутри окрашены белой краской.

★ Избушка в которой гонят самогон в фильме, получается «внутри больше чем снаружи».

★ В сцене, где впервые Бывалый достает динамитовую шашку, у нее нет огнепроводного шнура, хотя в дальнейшем он чудесным образом появляется.

★ В фильме огнепроводный шнур горит красным пламенем. Но на самом деле должен гореть желтым.

★ В сцене, где мимо троицы на лодке проплывает рыбнадзор слышен звук низкооборотистого четырехтактного двигателя серии «Л» (действительно широко применявшийся на лодках в те годы), хотя на той лодке стоит подвесной мотор «Москва».

★ Ларичев и Василий по сюжету фильма пытаются сесть в поезд на станции метро «Улица 1905 года».

★ По сюжету показывается мост метрополитена около станции метро Киевская, выходят Ларичев и Василий на станции метро Сокол. Работает Ларичев в сдании Гидропроекта, на пересечении Волоколамского и Ленинградского шоссе.









Релиз группы:



   Похожие торренты   Торрент   Размер 
В этой теме нет новых непрочитанных сообщений. Пес Барбос и необычный кросс, Самогонщики, Сто грамм для храбрости (1961-1976) BDRip 1080p

150 | 28

4.38 ГБ

В этой теме нет новых непрочитанных сообщений. Пес Барбос и необычный кросс / Самогонщики / Сто грамм для храбрости (1961-1976) BDRip-AVC от MediaClub

86 | 13

2.36 ГБ

В этой теме нет новых непрочитанных сообщений. Самогонщики; Пес Барбос и необычный кросс; Сто грамм для храбрости (1961-1976) BDRip от R.G. 25 Кадр

439 | 30

1.45 ГБ

В этой теме нет новых непрочитанных сообщений. Пес Барбос и необычный кросс, Самогонщики, Сто грамм для храбрости (1961-1976) Blu-Ray

8 | 4

22.85 ГБ

В этой теме нет новых непрочитанных сообщений. Пес Барбос и необычный кросс / Самогонщики / Сто грамм для храбрости (1961-1976) BDRip 720p от MediaClub

63 | 12

4.07 ГБ

В этой теме нет новых непрочитанных сообщений. Сборник фильмов - Самогонщики; Пес Барбос и необычный кросс; Сто грамм для храбрости (1961-1976) DVDRip

643 | 92

1.46 ГБ

В этой теме нет новых непрочитанных сообщений. Пес Барбос и необычный кросс, Самогонщики, Сто грамм для храбрости (1961) DVD5

57 | 20

3.97 ГБ




Вы не можете начинать темы
Вы не можете отвечать на сообщения
Вы не можете редактировать свои сообщения
Вы не можете удалять свои сообщения
Вы не можете добавлять вложения

Перейти:  
Для Мосгорсуда, Роскомнадзора и рекламодателей: mosgorsud-torrent[собачка]yandex.ru
 Вход
ppkBB3cker v.2 © 2008-2014 @ PPK
[ Time : 0.032s | 14 Queries | GZIP : Off ]

Торрент трекер RUTOR.IN, Не можете зайти на rutor.org? Какой новый адрес рутор? Какое зеркало рутор? Не работает rutor.org и зеркала? Тогда наш торрент специально для вас. Rutor.in неофициальное зеркало rutor. В случае если у Вас заблокирован rutor или вдруг Вы не можете на него зайти, то Вы без труда сможете скачать бесплатно и без рекламы последние новинки кино, игр, сериалов и прочего у нас, на Rutor.in. Не нужно использовать прокси, чтобы зайти на рутор, достаточно воспользоваться нашим ресурсом. Все новые фильмы, игры, сериалы, книги и музыка за 2013 и 2014 годы через торрент бесплатно. Скачивайте фильмы в хорошем качестве, игры для пк, xbox, playstation без регистрации. У нас вы найдете новые Зарубежные сериалы и Русские сериалы 2013, 2014, 2015 годов. Оставайтесь с нами, качайте любимые фильмы, игры, сериалы, книги и музыку.