img image001 image001 image001 image001 image001 image001 image001 image001 image001 image001 image001 image001 image001 image001 image001

Planets Sun Sun Sun
Статистика раздачи
Автор: Снежана | Размер: 17.04 ГБ | Добавлен: 24 июл 2013
Раздают: 2    Качают: 2
Скачать торрент
Скачать торрент
Описание торрента

СообщениеДобавлено: 24 июл 2013 

#77

Информация о фильме
Название: Паспорт
Год выхода: 1990
Жанр: Комедия
Режиссер: Георгий Данелия
В ролях: Жерар Дармон, Наталья Гундарева, Олег Янковский, Армен Джигарханян, Евгений Леонов, Леонид Ярмольник, Мамука Кикалейшвили, Леван Пилпани, Яаков Бен-Сира, Шарон Акоэн Брандон, Нуца Когуашвили, Ким Салливан, Игорь Кваша, Александр Берда

О фильме:
Братья Папашвили, приехав в аэропорт, откуда один из них по соображениям жены должен улететь в Израиль, захотели выпить шампанское. Захотели, а на территории СССР его не продавали, поэтому Мераб пересёк границу по паспорту брата и купил бутылку. А обратно его не пускают. Поэтому в Израиль улетел не хормейстер детского хора Яков, а очень похожий на него брат — таксист Мераб. О его мытарствах-приключениях, выходящих за всякие пределы воображения, и рассказывает эта комедия с грустинкой. Евреи его принимают за агента КГБ, работники советского торгпредства за провокатора, а вернуться домой официально он не может.


Выпущено: СССР, Франция, Австрия / Мосфильм, студия «Ритм», Госкино, Passport Production
Продолжительность: 01:41:45
Перевод: Не требуется

Файл
Формат: MKV
Качество: BD Remux 1080p
Видео: 1920x1080, 21,5 Мбит/с, 23,976 кадра/с
Аудио: Русский (DTS-HD MA, 6ch, 3521 Кбит/c), (AC3, 6 ch, 448 Кбит/с)


Общее

Уникальный идентификатор : 207446968964156599585989636412503058544 (0x9C10D53B8F07FA1DA3709CDE0FED6870)

Полное имя : D:Mои раздачиPasport.1990.Blu-Ray.Remux.(1080p).mkv

Формат : Matroska

Версия формата : Version 2

Размер файла : 17,0 Гбайт

Продолжительность : 1 ч. 41 м.

Режим общего битрейта : Переменный

Общий поток : 24,0 Мбит/сек

Дата кодирования : UTC 2013-04-19 13:21:43

Программа кодирования : mkvmerge v5.7.0 ('The Whirlwind') built on Aug 7 2012 14:11:40

Библиотека кодирования : libebml v1.2.3 + libmatroska v1.3.0
Видео

Идентификатор : 1

Формат : AVC

Формат/Информация : Advanced Video Codec

Профиль формата : High@L4.1

Параметр CABAC формата : Да

Параметр ReFrames формата : 4 кадра

Параметр GOP формата : M=3, N=24

Идентификатор кодека : V_MPEG4/ISO/AVC

Продолжительность : 1 ч. 41 м.

Вид битрейта : Переменный

Битрейт : 21,5 Мбит/сек

Максимальный битрейт : 35,0 Мбит/сек

Ширина : 1920 пикселей

Высота : 1080 пикселей

Соотношение сторон : 16:9

Режим частоты кадров : Постоянный

Частота кадров : 23,976 кадра/сек

Стандарт вещания : NTSC

Цветовое пространство : YUV

Субдискретизация насыщенности : 4:2:0

Битовая глубина : 8 бит

Тип развёртки : Прогрессивная

Бит/(Пиксели*Кадры) : 0.432

Размер потока : 15,3 Гбайт (90%)

Default : Да

Forced : Нет

Основные цвета : BT.709

Характеристики трансфера : BT.709

Коэффициенты матрицы : BT.709
Аудио #1

Идентификатор : 2

Формат : DTS

Формат/Информация : Digital Theater Systems

Профиль формата : MA / Core

Идентификатор кодека : A_DTS

Продолжительность : 1 ч. 41 м.

Вид битрейта : Переменный

Битрейт : 1561 Кбит/сек / 1510 Кбит/сек

Каналы : 6 каналов

Расположение каналов : Front: L C R, Side: L R, LFE

Частота : 48,0 КГц

Битовая глубина : 24 бит

Метод сжатия : Без потерь / Lossy

Язык : Russian

Default : Да

Forced : Нет
Аудио #2

Идентификатор : 3

Формат : AC-3

Формат/Информация : Audio Coding 3

Расширение режима : CM (complete main)

Параметр Endianness формата : Big

Идентификатор кодека : A_AC3

Продолжительность : 1 ч. 41 м.

Вид битрейта : Постоянный

Битрейт : 448 Кбит/сек

Каналы : 6 каналов

Расположение каналов : Front: L C R, Side: L R, LFE

Частота : 48,0 КГц

Битовая глубина : 16 бит

Метод сжатия : С потерями

Размер потока : 326 Мбайт (2%)

Язык : Russian

Default : Нет

Forced : Нет
Меню

00:00:00.000 : en:Chapter 01

00:11:59.385 : en:Chapter 02

00:22:44.279 : en:Chapter 03

00:32:31.115 : en:Chapter 04

00:38:05.700 : en:Chapter 05

00:44:04.725 : en:Chapter 06

00:52:12.754 : en:Chapter 07

00:56:58.748 : en:Chapter 08

01:03:10.036 : en:Chapter 09

01:09:52.396 : en:Chapter 10

01:16:44.433 : en:Chapter 11

01:25:49.477 : en:Chapter 12

01:31:42.205 : en:Chapter 13

01:36:49.970 : en:Chapter 14
Документ, названный в фильме «паспортом», является советской выездной визой второго рода.
На главную роль в фильме Данелия хотел пригласить Вахтанга Кикабидзе. Однако спонсоры из Франции настояли на том, чтобы это был французский актёр.
Премия «Ника» за мужскую роль (Олег Янковский — также за участие в фильме «Цареубийца»).

Ника, 1992 год
Победитель (2):
Лучший сценарий
Лучшая операторская работа (Вадим Юсов)
Номинации (1):
Лучший фильм
Полная реставрация изображения и звука. Покадровая цифровая реставрация изображения, ремастеринг звука и авторинг проведены объединением «Крупный план».
Автор рипа:



   Похожие торренты   Торрент   Размер 
В этой теме нет новых непрочитанных сообщений. Паспорт (1990) Blu-Ray 1080p

2 | 2

22 ГБ

В этой теме нет новых непрочитанных сообщений. Паспорт (1990) BDRip 1080p

15 | 4

7.95 ГБ

В этой теме нет новых непрочитанных сообщений. Паспорт (1990) BDRip

69 | 6

745.83 МБ

В этой теме нет новых непрочитанных сообщений. Паспорт (1990) DVDRip

16 | 3

1.37 ГБ

В этой теме нет новых непрочитанных сообщений. Паспорт (1990) BDRip от MediaClub

152 | 20

2.03 ГБ

В этой теме нет новых непрочитанных сообщений. Паспорт (1990) BDRip от MediaClub

41 | 8

745.83 МБ

В этой теме нет новых непрочитанных сообщений. Паспорт (1990) BDRip-AVC от MediaClub

21 | 3

2.81 ГБ




Вы не можете начинать темы
Вы не можете отвечать на сообщения
Вы не можете редактировать свои сообщения
Вы не можете удалять свои сообщения
Вы не можете добавлять вложения

Перейти:  
Для Мосгорсуда, Роскомнадзора и рекламодателей: mosgorsud-torrent[собачка]yandex.ru
 Вход
ppkBB3cker v.2 © 2008-2014 @ PPK
[ Time : 0.035s | 14 Queries | GZIP : On ]

Торрент трекер RUTOR.IN, Не можете зайти на rutor.org? Какой новый адрес рутор? Какое зеркало рутор? Не работает rutor.org и зеркала? Тогда наш торрент специально для вас. Rutor.in неофициальное зеркало rutor. В случае если у Вас заблокирован rutor или вдруг Вы не можете на него зайти, то Вы без труда сможете скачать бесплатно и без рекламы последние новинки кино, игр, сериалов и прочего у нас, на Rutor.in. Не нужно использовать прокси, чтобы зайти на рутор, достаточно воспользоваться нашим ресурсом. Все новые фильмы, игры, сериалы, книги и музыка за 2013 и 2014 годы через торрент бесплатно. Скачивайте фильмы в хорошем качестве, игры для пк, xbox, playstation без регистрации. У нас вы найдете новые Зарубежные сериалы и Русские сериалы 2013, 2014, 2015 годов. Оставайтесь с нами, качайте любимые фильмы, игры, сериалы, книги и музыку.