img image001 image001 image001 image001 image001 image001 image001 image001 image001 image001 image001 image001 image001 image001 image001

Planets Sun Sun Sun
Статистика раздачи
Автор: Снежана | Размер: 1.22 ГБ | Добавлен: 24 июл 2013
Раздают: 86    Качают: 12
Скачать торрент
Скачать торрент
Описание торрента

СообщениеДобавлено: 24 июл 2013 

#77

Страна: СССР
Студия: Мосфильм
Жанр: Комедия, короткометражка
Год выпуска: 1961
Продолжительность: 00:10:28 + 00:18:58

Перевод: Не требуется
Cубтитры: нет
Режиссер: Леонид Гайдай

В ролях: Евгений Моргунов, Георгий Вицин, Юрий Никулин, Владимир Пицек

Описание:
Пёс Барбос и необычный кросс:
Что есть главное средство для поддержания мужской дружбы и просто для увлекательного времяпрепровождения? Правильно, это рыбалка. Трус, Балбес и Бывалый решили испытать эту радость жизни на себе, но на свою беду взяли они с собой пса Барбоса...
Самогонщики:
Трус, Балбес и Бывалый решают поставить на широкую ногу изготовление самогона - и снова фиаско...

Сэмпл

Тип релиза: BDRip 720p
Контейнер: MKV
Исходник: BD
Видео 1: AVC, 992x720 (1.378), 5499 kbps, 23,976 fps, 0,359 bpp || Пес Барбос и необычный кросс
Видео 2: AVC, 992x720 (1.378), 5499 kbps, 23,976 fps, 0,359 bpp || Самогонщики
Аудио: AC3 / 5.1 / 48 kHz / 448 kbps / 16 bit ||
Общее
Уникальный идентификатор : 228694301602525990082282013521518691638 (0xAC0CEB9C7F344E9DB23C78E245C28536)
Полное имя : E:BDПес_Барбос&Самогонщики_1961.[Youtracker]Pes.Barbos.1961.BDRip.720.[Youtracker].by.Дядя_Лёша.mkv
Формат : Matroska
Версия формата : Version 4 / Version 2
Размер файла : 446 Мбайт
Продолжительность : 10 м.
Общий поток : 5959 Кбит/сек
Дата кодирования : UTC 2013-04-20 15:33:40
Программа кодирования : mkvmerge v6.1.0 ('Old Devil') built on Mar 2 2013 14:32:37
Библиотека кодирования : libebml v1.3.0 + libmatroska v1.4.0
Attachment : Yes

Видео
Идентификатор : 1
Формат : AVC
Формат/Информация : Advanced Video Codec
Профиль формата : High@L4.1
Параметр CABAC формата : Да
Параметр ReFrames формата : 11 кадров
Идентификатор кодека : V_MPEG4/ISO/AVC
Продолжительность : 10 м.
Битрейт : 5499 Кбит/сек
Ширина : 992 пикселя
Высота : 720 пикселей
Соотношение сторон : 1,378
Режим частоты кадров : Постоянный
Частота кадров : 23,976 кадра/сек
Цветовое пространство : YUV
Субдискретизация насыщенности : 4:2:0
Битовая глубина : 8 бит
Тип развёртки : Прогрессивная
Бит/(Пиксели*Кадры) : 0.321
Размер потока : 404 Мбайт (90%)
Библиотека кодирования : x264 core 130 r2273 b3065e6
Настройки программы : cabac=1 / ref=11 / deblock=1:-3:-3 / analyse=0x3:0x133 / me=umh / subme=10 / psy=1 / psy_rd=1.00:0.15 / mixed_ref=1 / me_range=24 / chroma_me=1 / trellis=2 / 8x8dct=1 / cqm=0 / deadzone=21,11 / fast_pskip=1 / chroma_qp_offset=-3 / threads=9 / lookahead_threads=1 / sliced_threads=0 / nr=0 / decimate=1 / interlaced=0 / bluray_compat=0 / constrained_intra=0 / bframes=8 / b_pyramid=2 / b_adapt=2 / b_bias=0 / direct=3 / weightb=1 / open_gop=0 / weightp=2 / keyint=240 / keyint_min=22 / scenecut=40 / intra_refresh=0 / rc_lookahead=40 / rc=2pass / mbtree=1 / bitrate=5499 / ratetol=1.0 / qcomp=0.60 / qpmin=10 / qpmax=51 / qpstep=4 / cplxblur=20.0 / qblur=0.5 / ip_ratio=1.40 / aq=1:1.00
Язык : English
Default : Да
Forced : Нет

Аудио
Идентификатор : 2
Формат : AC-3
Формат/Информация : Audio Coding 3
Расширение режима : CM (complete main)
Параметр Endianness формата : Big
Идентификатор кодека : A_AC3
Продолжительность : 10 м.
Вид битрейта : Постоянный
Битрейт : 448 Кбит/сек
Каналы : 6 каналов
Расположение каналов : Front: L C R, Side: L R, LFE
Частота : 48,0 КГц
Битовая глубина : 16 бит
Метод сжатия : С потерями
Размер потока : 33,5 Мбайт (8%)
Заголовок : Оригинал
Язык : Russian
Default : Да
Forced : Нет




Раздача от:



   Похожие торренты   Торрент   Размер 
В этой теме нет новых непрочитанных сообщений. Пес Барбос и необычный кросс. Самогонщики (1961) DVDRip от Youtracker

64 | 7

460.89 МБ

В этой теме нет новых непрочитанных сообщений. Пес Барбос и необычный кросс. Самогонщики (1961) DVDRip-AVC от Youtracker

8 | 4

399.57 МБ

В этой теме нет новых непрочитанных сообщений. Пес Барбос и необычный кросс / Самогонщики / Сто грамм для храбрости (1961-1976) BDRip 720p от MediaClub

63 | 12

4.07 ГБ

В этой теме нет новых непрочитанных сообщений. Самогонщики; Пес Барбос и необычный кросс; Сто грамм для храбрости (1961-1976) BDRip от R.G. 25 Кадр

439 | 30

1.45 ГБ

В этой теме нет новых непрочитанных сообщений. Пес Барбос и необычный кросс / Самогонщики / Сто грамм для храбрости (1961-1976) BDRip-AVC от MediaClub

86 | 13

2.36 ГБ

В этой теме нет новых непрочитанных сообщений. Пес Барбос и необычный кросс, Самогонщики, Сто грамм для храбрости (1961-1976) BDRip 1080p

150 | 28

4.38 ГБ

В этой теме нет новых непрочитанных сообщений. Самогонщики / Пес Барбос и необычный кросс / «Сто грамм» для храбрости (1961,1976) BDRip 1080p от Freeisland

38 | 9

7.94 ГБ




Вы не можете начинать темы
Вы не можете отвечать на сообщения
Вы не можете редактировать свои сообщения
Вы не можете удалять свои сообщения
Вы не можете добавлять вложения

Перейти:  
Для Мосгорсуда, Роскомнадзора и рекламодателей: mosgorsud-torrent[собачка]yandex.ru
 Вход
ppkBB3cker v.2 © 2008-2014 @ PPK
[ Time : 0.025s | 15 Queries | GZIP : Off ]

Торрент трекер RUTOR.IN, Не можете зайти на rutor.org? Какой новый адрес рутор? Какое зеркало рутор? Не работает rutor.org и зеркала? Тогда наш торрент специально для вас. Rutor.in неофициальное зеркало rutor. В случае если у Вас заблокирован rutor или вдруг Вы не можете на него зайти, то Вы без труда сможете скачать бесплатно и без рекламы последние новинки кино, игр, сериалов и прочего у нас, на Rutor.in. Не нужно использовать прокси, чтобы зайти на рутор, достаточно воспользоваться нашим ресурсом. Все новые фильмы, игры, сериалы, книги и музыка за 2013 и 2014 годы через торрент бесплатно. Скачивайте фильмы в хорошем качестве, игры для пк, xbox, playstation без регистрации. У нас вы найдете новые Зарубежные сериалы и Русские сериалы 2013, 2014, 2015 годов. Оставайтесь с нами, качайте любимые фильмы, игры, сериалы, книги и музыку.