img image001 image001 image001 image001 image001 image001 image001 image001 image001 image001 image001 image001 image001 image001 image001

Planets Sun Sun Sun
Статистика раздачи
Автор: Снежана | Размер: 744.13 МБ | Добавлен: 24 июл 2013
Раздают: 222    Качают: 28
Скачать торрент
Скачать торрент
Описание торрента

СообщениеДобавлено: 24 июл 2013 

#77

Год выпуска: 1989
Страна: СССР
Жанр: драма
Продолжительность: 01:36:25
Русские субтитры: нет

Режиссер: Игорь Гостев

В ролях: Андрей Ташков (Юрий Колганов 'Колган'), Лев Дуров (майор Маркелов), Александр Мохов (Авраамов сын), Сергей Гармаш, Наил Идрисов, Андрей Липихин, Антон Андросов (филателист), Александр Кузнецов (лейтенант), Ирина Аверина, Михаил Чигарев, Александр Числов ('Мойдодыр'), Виктор Павлов (начальник колонии, ИТК)

Описание: В исправительной колонии царят жестокие порядки, установленные администрацией и поддерживаемые среди заключенных с помощью воров в законе. Воровская «элита» творит свой суд и расправу над непокорными. Главный герой фильма не пожелал мириться с таким положение дел и вместе с несколькими заключенными, разделяющими его взгляды, попытался изменить беспросветную жизнь колонии. Противостояние двух неравных сил привело к бунту. Власти учинили новый беспредел и жестоко подавили стихийный протест заключенных…




Качество: DVDRip
Формат: AVI
Видео кодек: XviD
Аудио кодек: MP3
Видео: 624x480 (1.30:1), 25 fps, XviD build 50 ~941 kbps avg, 0.13 bit/pixel
Аудио: 48 kHz, MPEG Layer 3, 2 ch, ~128.00 kbps avg




D:bespredel_DVDRip by dexter lex.avi
General
Complete name : D:bespredel_DVDRip by dexter lex.avi
Format : AVI
Format/Info : Audio Video Interleave
File size : 744 MiB
Duration : 1h 36mn
Overall bit rate : 1 079 Kbps
Writing application : VirtualDubMod 1.5.10.3 | www.virtualdub-fr.org || (build 2550/release)
Writing library : VirtualDubMod build 2550/release
Video #0
ID : 0
Format : MPEG-4 Visual
Format profile : Advanced Simple@L5
Format settings, BVOP : 1
Format settings, QPel : No
Format settings, GMC : No warppoints
Format settings, Matrix : Custom
Codec ID : XVID
Codec ID/Hint : XviD
Duration : 1h 36mn
Bit rate : 941 Kbps
Width : 624 pixels
Height : 480 pixels
Display aspect ratio : 1.30:1
Frame rate : 25.000 fps
Color space : YUV
Chroma subsampling : 4:2:0
Bit depth : 8 bits
Scan type : Progressive
Compression mode : Lossy
Bits/(Pixel*Frame) : 0.126
Stream size : 649 MiB (87%)
Writing library : XviD 1.2.1 (UTC 2008-12-04)
Audio #1
ID : 1
Format : MPEG Audio
Format version : Version 1
Format profile : Layer 3
Codec ID : 55
Codec ID/Hint : MP3
Duration : 1h 36mn
Bit rate mode : Constant
Bit rate : 128 Kbps
Channel(s) : 2 channels
Sampling rate : 48.0 KHz
Compression mode : Lossy
Stream size : 88.3 MiB (12%)
Alignment : Aligned on interleaves
Interleave, duration : 40 ms (1.00 video frame)
Interleave, preload duration : 504 ms
Writing library : LAME3.99r
Encoding settings : -m s -V 4 -q 2 -lowpass 17 -b 128



   Похожие торренты   Торрент   Размер 
В этой теме нет новых непрочитанных сообщений. Беспредел (1989) DVDRip-AVC

719 | 45

2.09 ГБ

В этой теме нет новых непрочитанных сообщений. Беспредел (1989) DVDRip

91 | 14

1.46 ГБ

В этой теме нет новых непрочитанных сообщений. Беспредел (1989) DVDRip от olegek70

415 | 14

1.45 ГБ

В этой теме нет новых непрочитанных сообщений. Беспредел (1989) DVDRip-AVC от ExKinoRay

200 | 11

1.81 ГБ

В этой теме нет новых непрочитанных сообщений. BBC. ЛСД - Внутренний беспредел / BBC. LSD - The Beyond Within (1987) DVDRip

5 | 3

670.88 МБ

В этой теме нет новых непрочитанных сообщений. Беспредел / Outrage / Autoreiji (2010) DVDRip

49 | 10

852.56 МБ

В этой теме нет новых непрочитанных сообщений. Беспредел / Outrage / Autoreiji (2010) DVDRip от KINOREAKTOR

28 | 2

1.36 ГБ




Вы не можете начинать темы
Вы не можете отвечать на сообщения
Вы не можете редактировать свои сообщения
Вы не можете удалять свои сообщения
Вы не можете добавлять вложения

Перейти:  
Для Мосгорсуда, Роскомнадзора и рекламодателей: mosgorsud-torrent[собачка]yandex.ru
 Вход
ppkBB3cker v.2 © 2008-2014 @ PPK
[ Time : 0.056s | 14 Queries | GZIP : Off ]

Торрент трекер RUTOR.IN, Не можете зайти на rutor.org? Какой новый адрес рутор? Какое зеркало рутор? Не работает rutor.org и зеркала? Тогда наш торрент специально для вас. Rutor.in неофициальное зеркало rutor. В случае если у Вас заблокирован rutor или вдруг Вы не можете на него зайти, то Вы без труда сможете скачать бесплатно и без рекламы последние новинки кино, игр, сериалов и прочего у нас, на Rutor.in. Не нужно использовать прокси, чтобы зайти на рутор, достаточно воспользоваться нашим ресурсом. Все новые фильмы, игры, сериалы, книги и музыка за 2013 и 2014 годы через торрент бесплатно. Скачивайте фильмы в хорошем качестве, игры для пк, xbox, playstation без регистрации. У нас вы найдете новые Зарубежные сериалы и Русские сериалы 2013, 2014, 2015 годов. Оставайтесь с нами, качайте любимые фильмы, игры, сериалы, книги и музыку.