img image001 image001 image001 image001 image001 image001 image001 image001 image001 image001 image001 image001 image001 image001 image001

Planets Sun Sun Sun
Статистика раздачи
Автор: Снежана | Размер: 2.36 ГБ | Добавлен: 24 июл 2013
Раздают: 86    Качают: 13
Скачать торрент
Скачать торрент
Описание торрента

СообщениеДобавлено: 24 июл 2013 

#77

Оригинальное название: Пес Барбос и необычный кросс / Самогонщики / Сто грамм для храбрости
Год выхода: 1961-1976
Жанр: Эксцентрическая комедия
Режиссер: Леонид Гайдай, Константин Бровин, Георгий Щукин
В ролях: Евгений Моргунов, Георгий Вицин, Юрий Никулин, Игорь Ясулович, Юрий Кузьменков, Владимир Басов, Георгий Кавтарадзе, Михаил Светин, Валентина Титова, Элене Кипшидзе, Дима Шаройченко, Николай Гринько, Борислав Брондуков, Татьяна Васильева, Александр Белявский, Нинель Мышкова

О фильме:
В сборник вошли три новеллы: "Пес Барбос и необычный кросс" - рассказ о наказании постигшем на рыбалке троицу горе-браконьеров..., "Самогонщики" - Трус, Балбес и Бывалый решают поставить на широкую ногу изготовление самогона - и снова фиаско..., "Сто грамм для храбрости" - три сатирические новеллы антиалкогольной тематики...

Страна: СССР
Студия: Мосфильм
Продолжительность: 01:44:25

Перевод: Оригинал
Файл
Кодек: MPEG-4 AVC
Качество: BDRip-AVC
Видео 1: 3500 Кбит/с, 788x576, 23.976 кадр/с
Видео 2: 3500 Кбит/с, 788x576, 23.976 кадр/с
Видео 3: 2500 Кбит/с, 1024x436, 23.976 кадр/с
Звук:
Аудио: Русский (AC3, 6 ch, 448 Кбит/с)
Семпл

Полное имя : Samogonschiki.1961-1976.x264.BDRip.(AVC)-MediaClub1.Pes-Barbos.1961.x264.BDRip.(AVC)-MediaClub.mkv
Формат : Matroska
Версия формата : Version 4 / Version 2
Размер файла : 296 Мбайт
Продолжительность : 10 м.
Общий поток : 3953 Кбит/сек
Название фильма : = MediaClub = rip by Painter
Дата кодирования : UTC 2013-04-22 06:25:56
Программа кодирования : mkvmerge v6.0.0 ('Coming Up For Air') built on Jan 20 2013 09:52:00
Библиотека кодирования : libebml v1.3.0 + libmatroska v1.4.0

Видео
Идентификатор : 1
Формат : AVC
Формат/Информация : Advanced Video Codec
Профиль формата : High@L4.1
Параметр CABAC формата : Да
Параметр ReFrames формата : 9 кадров
Идентификатор кодека : V_MPEG4/ISO/AVC
Продолжительность : 10 м.
Битрейт : 3500 Кбит/сек
Ширина : 788 пикселей
Высота : 576 пикселей
Соотношение сторон : 4:3
Режим частоты кадров : Постоянный
Частота кадров : 23,976 кадра/сек
Цветовое пространство : YUV
Субдискретизация насыщенности : 4:2:0
Битовая глубина : 8 бит
Тип развёртки : Прогрессивная
Бит/(Пиксели*Кадры) : 0.322
Размер потока : 257 Мбайт (87%)
Библиотека кодирования : x264 core 130 r2273 b3065e6
Настройки программы : cabac=1 / ref=9 / deblock=1:-2:-2 / analyse=0x3:0x133 / me=umh / subme=11 / psy=1 / psy_rd=1.00:0.20 / mixed_ref=1 / me_range=48 / chroma_me=1 / trellis=2 / 8x8dct=1 / cqm=0 / deadzone=21,11 / fast_pskip=0 / chroma_qp_offset=-3 / threads=3 / lookahead_threads=1 / sliced_threads=0 / nr=0 / decimate=0 / interlaced=0 / bluray_compat=0 / constrained_intra=0 / bframes=7 / b_pyramid=2 / b_adapt=2 / b_bias=0 / direct=3 / weightb=1 / open_gop=0 / weightp=2 / keyint=240 / keyint_min=23 / scenecut=40 / intra_refresh=0 / rc=2pass / mbtree=0 / bitrate=3500 / ratetol=1.0 / qcomp=0.60 / qpmin=0 / qpmax=69 / qpstep=4 / cplxblur=20.0 / qblur=0.5 / ip_ratio=1.40 / pb_ratio=1.30 / aq=1:1.00
Язык : Russian
Default : Да
Forced : Нет

Аудио
Идентификатор : 2
Формат : AC-3
Формат/Информация : Audio Coding 3
Расширение режима : CM (complete main)
Параметр Endianness формата : Big
Идентификатор кодека : A_AC3
Продолжительность : 10 м.
Вид битрейта : Постоянный
Битрейт : 448 Кбит/сек
Каналы : 6 каналов
Расположение каналов : Front: L C R, Side: L R, LFE
Частота : 48,0 КГц
Битовая глубина : 16 бит
Метод сжатия : С потерями
Размер потока : 33,5 Мбайт (11%)
Язык : Russian
Default : Да
Forced : Нет



Полное имя : Samogonschiki.1961-1976.x264.BDRip.(AVC)-MediaClub2.Samogonschiki.1961.x264.BDRip.(AVC)-MediaClub.mkv
Формат : Matroska
Версия формата : Version 4 / Version 2
Размер файла : 536 Мбайт
Продолжительность : 18 м.
Общий поток : 3951 Кбит/сек
Название фильма : = MediaClub = rip by Painter
Дата кодирования : UTC 2013-04-22 11:26:45
Программа кодирования : mkvmerge v6.0.0 ('Coming Up For Air') built on Jan 20 2013 09:52:00
Библиотека кодирования : libebml v1.3.0 + libmatroska v1.4.0

Видео
Идентификатор : 1
Формат : AVC
Формат/Информация : Advanced Video Codec
Профиль формата : High@L4.1
Параметр CABAC формата : Да
Параметр ReFrames формата : 9 кадров
Идентификатор кодека : V_MPEG4/ISO/AVC
Продолжительность : 18 м.
Битрейт : 3500 Кбит/сек
Ширина : 788 пикселей
Высота : 576 пикселей
Соотношение сторон : 4:3
Режим частоты кадров : Постоянный
Частота кадров : 23,976 кадра/сек
Цветовое пространство : YUV
Субдискретизация насыщенности : 4:2:0
Битовая глубина : 8 бит
Тип развёртки : Прогрессивная
Бит/(Пиксели*Кадры) : 0.322
Размер потока : 465 Мбайт (87%)
Библиотека кодирования : x264 core 130 r2273 b3065e6
Настройки программы : cabac=1 / ref=9 / deblock=1:-2:-2 / analyse=0x3:0x133 / me=umh / subme=11 / psy=1 / psy_rd=1.00:0.20 / mixed_ref=1 / me_range=48 / chroma_me=1 / trellis=2 / 8x8dct=1 / cqm=0 / deadzone=21,11 / fast_pskip=0 / chroma_qp_offset=-3 / threads=3 / lookahead_threads=1 / sliced_threads=0 / nr=0 / decimate=0 / interlaced=0 / bluray_compat=0 / constrained_intra=0 / bframes=7 / b_pyramid=2 / b_adapt=2 / b_bias=0 / direct=3 / weightb=1 / open_gop=0 / weightp=2 / keyint=240 / keyint_min=23 / scenecut=40 / intra_refresh=0 / rc=2pass / mbtree=0 / bitrate=3500 / ratetol=1.0 / qcomp=0.60 / qpmin=0 / qpmax=69 / qpstep=4 / cplxblur=20.0 / qblur=0.5 / ip_ratio=1.40 / pb_ratio=1.30 / aq=1:1.00
Язык : Russian
Default : Да
Forced : Нет

Аудио
Идентификатор : 2
Формат : AC-3
Формат/Информация : Audio Coding 3
Расширение режима : CM (complete main)
Параметр Endianness формата : Big
Идентификатор кодека : A_AC3
Продолжительность : 18 м.
Вид битрейта : Постоянный
Битрейт : 448 Кбит/сек
Каналы : 6 каналов
Расположение каналов : Front: L C R, Side: L R, LFE
Частота : 48,0 КГц
Битовая глубина : 16 бит
Метод сжатия : С потерями
Задержка видео : 10 мс.
Размер потока : 60,8 Мбайт (11%)
Язык : Russian
Default : Да
Forced : Нет


Полное имя : Samogonschiki.1961-1976.x264.BDRip.(AVC)-MediaClub3.100.gramm.dlya.hrabrosti.1976.x264.BDRip.(AVC)-MediaClub.mkv
Формат : Matroska
Версия формата : Version 4 / Version 2
Размер файла : 1,55 Гбайт
Продолжительность : 1 ч. 14 м.
Общий поток : 2951 Кбит/сек
Название фильма : = MediaClub = rip by Painter
Дата кодирования : UTC 2013-04-22 08:26:40
Программа кодирования : mkvmerge v6.0.0 ('Coming Up For Air') built on Jan 20 2013 09:52:00
Библиотека кодирования : libebml v1.3.0 + libmatroska v1.4.0

Видео
Идентификатор : 1
Формат : AVC
Формат/Информация : Advanced Video Codec
Профиль формата : High@L4.1
Параметр CABAC формата : Да
Параметр ReFrames формата : 9 кадров
Идентификатор кодека : V_MPEG4/ISO/AVC
Продолжительность : 1 ч. 14 м.
Битрейт : 2500 Кбит/сек
Ширина : 1024 пикселя
Высота : 436 пикселей
Соотношение сторон : 2,35:1
Режим частоты кадров : Постоянный
Частота кадров : 23,976 кадра/сек
Цветовое пространство : YUV
Субдискретизация насыщенности : 4:2:0
Битовая глубина : 8 бит
Тип развёртки : Прогрессивная
Бит/(Пиксели*Кадры) : 0.234
Размер потока : 1,28 Гбайт (83%)
Библиотека кодирования : x264 core 130 r2273 b3065e6
Настройки программы : cabac=1 / ref=9 / deblock=1:-2:-2 / analyse=0x3:0x133 / me=umh / subme=11 / psy=1 / psy_rd=1.00:0.15 / mixed_ref=1 / me_range=48 / chroma_me=1 / trellis=2 / 8x8dct=1 / cqm=0 / deadzone=21,11 / fast_pskip=0 / chroma_qp_offset=-3 / threads=6 / lookahead_threads=1 / sliced_threads=0 / nr=0 / decimate=0 / interlaced=0 / bluray_compat=0 / constrained_intra=0 / bframes=7 / b_pyramid=2 / b_adapt=2 / b_bias=0 / direct=3 / weightb=1 / open_gop=0 / weightp=2 / keyint=240 / keyint_min=23 / scenecut=40 / intra_refresh=0 / rc=2pass / mbtree=0 / bitrate=2500 / ratetol=1.0 / qcomp=0.60 / qpmin=0 / qpmax=69 / qpstep=4 / cplxblur=20.0 / qblur=0.5 / ip_ratio=1.40 / pb_ratio=1.30 / aq=1:0.80
Язык : Russian
Default : Да
Forced : Нет

Аудио
Идентификатор : 2
Формат : AC-3
Формат/Информация : Audio Coding 3
Расширение режима : CM (complete main)
Параметр Endianness формата : Big
Идентификатор кодека : A_AC3
Продолжительность : 1 ч. 14 м.
Вид битрейта : Постоянный
Битрейт : 448 Кбит/сек
Каналы : 6 каналов
Расположение каналов : Front: L C R, Side: L R, LFE
Частота : 48,0 КГц
Битовая глубина : 16 бит
Метод сжатия : С потерями
Размер потока : 240 Мбайт (15%)
Язык : Russian
Default : Да
Forced : Нет




Релиз от:
Автор рипа: Painter
За исходник спасибо HDClub



   Похожие торренты   Торрент   Размер 
В этой теме нет новых непрочитанных сообщений. Пес Барбос и необычный кросс / Самогонщики / Сто грамм для храбрости (1961-1976) BDRip 720p от MediaClub

63 | 12

4.07 ГБ

В этой теме нет новых непрочитанных сообщений. Самогонщики; Пес Барбос и необычный кросс; Сто грамм для храбрости (1961-1976) BDRip от R.G. 25 Кадр

439 | 30

1.45 ГБ

В этой теме нет новых непрочитанных сообщений. Пес Барбос и необычный кросс, Самогонщики, Сто грамм для храбрости (1961-1976) BDRip 1080p

150 | 28

4.38 ГБ

В этой теме нет новых непрочитанных сообщений. Пес Барбос и необычный кросс, Самогонщики, Сто грамм для храбрости (1961-1976) Blu-Ray

8 | 4

22.85 ГБ

В этой теме нет новых непрочитанных сообщений. Самогонщики / Пес Барбос и необычный кросс / «Сто грамм» для храбрости (1961,1976) BDRip 1080p от Freeisland

38 | 9

7.94 ГБ

В этой теме нет новых непрочитанных сообщений. Сборник фильмов - Самогонщики; Пес Барбос и необычный кросс; Сто грамм для храбрости (1961-1976) DVDRip

643 | 92

1.46 ГБ

В этой теме нет новых непрочитанных сообщений. Пес Барбос и необычный кросс, Самогонщики, Сто грамм для храбрости (1961) DVD5

57 | 20

3.97 ГБ




Вы не можете начинать темы
Вы не можете отвечать на сообщения
Вы не можете редактировать свои сообщения
Вы не можете удалять свои сообщения
Вы не можете добавлять вложения

Перейти:  
Для Мосгорсуда, Роскомнадзора и рекламодателей: mosgorsud-torrent[собачка]yandex.ru
 Вход
ppkBB3cker v.2 © 2008-2014 @ PPK
[ Time : 0.050s | 14 Queries | GZIP : Off ]

Торрент трекер RUTOR.IN, Не можете зайти на rutor.org? Какой новый адрес рутор? Какое зеркало рутор? Не работает rutor.org и зеркала? Тогда наш торрент специально для вас. Rutor.in неофициальное зеркало rutor. В случае если у Вас заблокирован rutor или вдруг Вы не можете на него зайти, то Вы без труда сможете скачать бесплатно и без рекламы последние новинки кино, игр, сериалов и прочего у нас, на Rutor.in. Не нужно использовать прокси, чтобы зайти на рутор, достаточно воспользоваться нашим ресурсом. Все новые фильмы, игры, сериалы, книги и музыка за 2013 и 2014 годы через торрент бесплатно. Скачивайте фильмы в хорошем качестве, игры для пк, xbox, playstation без регистрации. У нас вы найдете новые Зарубежные сериалы и Русские сериалы 2013, 2014, 2015 годов. Оставайтесь с нами, качайте любимые фильмы, игры, сериалы, книги и музыку.