img image001 image001 image001 image001 image001 image001 image001 image001 image001 image001 image001 image001 image001 image001 image001

Planets Sun Sun Sun
Статистика раздачи
Автор: Снежана | Размер: 1.46 ГБ | Добавлен: 24 июл 2013
Раздают: 39    Качают: 3
Скачать торрент
Скачать торрент
Описание торрента

СообщениеДобавлено: 24 июл 2013 

#77

Информация о фильме
Название: О чём молчат девушки
Год выхода: 2013
Жанр: Комедия
Выпущено:Россия
Режиссер:Карен Оганесян
В ролях:Юлия Пересильд, Олеся Судзиловская, Ольга Смирнова, Таисия Вилкова, Михаил Пореченков, Ольга Тумайкина, Игорь Жижикин
О фильме:
Четыре подруги сбегают из Москвы на уикенд в солнечную Испанию, чтобы на пляже, в SPA и за коктейлями на террасе расслабиться и поболтать обо всем. Но бывают обстоятельства, в которых девушки начинают говорить о том, о чем они обычно молчат…

Страна: Россия
Студия: Централ Партнершип
Продолжительность: 01:21:57

Файл
Кодек: h.264
Качество: BDRip (AVC)
Видео: MPEG-4 AVC, 2098 Кбит/с, 1024x538, 25.000 кадр/с
Звук: Русский (AC3, 6 ch, 448 Кбит/с)

Семпл

Релиз: от kaspr



Общее
Уникальный идентификатор : 249778845275532421097723428754780390936 (0xBBE9A7DFD36AD4ABA7B7738133010618)
Полное имя : D:Mои раздачиO.chem.molchat.devushki.2013.BDRip.(AVC)_MediaClub.mkv
Формат : Matroska
Версия формата : Version 2
Размер файла : 1,46 Гбайт
Продолжительность : 1 ч. 21 м.
Общий поток : 2546 Кбит/сек
Название фильма : О чём молчат девушки (MediaClub-kaspr)
Дата кодирования : UTC 2013-04-23 16:25:12
Программа кодирования : mkvmerge v5.7.0 ('The Whirlwind') built on Aug 7 2012 14:11:40
Библиотека кодирования : libebml v1.2.3 + libmatroska v1.3.0

Видео
Идентификатор : 1
Формат : AVC
Формат/Информация : Advanced Video Codec
Профиль формата : High@L4.1
Параметр CABAC формата : Да
Параметр ReFrames формата : 8 кадров
Идентификатор кодека : V_MPEG4/ISO/AVC
Продолжительность : 1 ч. 21 м.
Битрейт : 2098 Кбит/сек
Ширина : 1024 пикселя
Высота : 538 пикселей
Соотношение сторон : 1,903
Режим частоты кадров : Постоянный
Частота кадров : 25,000 кадров/сек
Цветовое пространство : YUV
Субдискретизация насыщенности : 4:2:0
Битовая глубина : 8 бит
Тип развёртки : Прогрессивная
Бит/(Пиксели*Кадры) : 0.152
Размер потока : 1,17 Гбайт (80%)
Заголовок : О чём молчат девушки (MediaClub-kaspr)
Библиотека кодирования : x264 core 130 r2273 b3065e6
Настройки программы : cabac=1 / ref=8 / deblock=1:-3:-3 / analyse=0x3:0x133 / me=umh / subme=11 / psy=1 / psy_rd=1.00:0.10 / mixed_ref=1 / me_range=32 / chroma_me=1 / trellis=2 / 8x8dct=1 / cqm=0 / deadzone=21,11 / fast_pskip=0 / chroma_qp_offset=-3 / threads=12 / lookahead_threads=1 / sliced_threads=0 / nr=0 / decimate=0 / interlaced=0 / bluray_compat=0 / constrained_intra=0 / bframes=6 / b_pyramid=2 / b_adapt=2 / b_bias=0 / direct=3 / weightb=1 / open_gop=0 / weightp=2 / keyint=250 / keyint_min=23 / scenecut=40 / intra_refresh=0 / rc_lookahead=40 / rc=2pass / mbtree=1 / bitrate=2098 / ratetol=1.0 / qcomp=0.60 / qpmin=0 / qpmax=69 / qpstep=4 / cplxblur=20.0 / qblur=0.5 / ip_ratio=1.40 / aq=1:1.00
Default : Да
Forced : Нет

Аудио
Идентификатор : 2
Формат : AC-3
Формат/Информация : Audio Coding 3
Расширение режима : CM (complete main)
Параметр Endianness формата : Big
Идентификатор кодека : A_AC3
Продолжительность : 1 ч. 21 м.
Вид битрейта : Постоянный
Битрейт : 448 Кбит/сек
Каналы : 6 каналов
Расположение каналов : Front: L C R, Side: L R, LFE
Частота : 48,0 КГц
Битовая глубина : 16 бит
Метод сжатия : С потерями
Размер потока : 263 Мбайт (18%)
Язык : Russian
Default : Да
Forced : Нет

Меню
00:00:00.000 : en:Chapter 01
00:05:36.720 : en:Chapter 02
00:12:15.960 : en:Chapter 03
00:19:38.080 : en:Chapter 04
00:26:45.000 : en:Chapter 05
00:31:31.360 : en:Chapter 06
00:39:04.080 : en:Chapter 07
00:45:38.280 : en:Chapter 08
00:51:09.680 : en:Chapter 09
00:59:47.000 : en:Chapter 10
01:04:01.280 : en:Chapter 11
01:14:38.960 : en:Chapter 12



   Похожие торренты   Торрент   Размер 
В этой теме нет новых непрочитанных сообщений. О чём молчат девушки (2013) BDRip от MediaClub | КПК

136 | 15

370.43 МБ

В этой теме нет новых непрочитанных сообщений. О чём молчат девушки (2013) BDRip | Лицензия

51 | 7

1.37 ГБ

В этой теме нет новых непрочитанных сообщений. О чём молчат девушки (2013) BDRip-AVC от leonardo 59

2 | 2

2.12 ГБ

В этой теме нет новых непрочитанных сообщений. О чём молчат девушки (2013) BDRip-AVC от leonardo 59 | iPad

0 | 2

1.93 ГБ

В этой теме нет новых непрочитанных сообщений. О чём молчат девушки (2013) BDRip от HQCLUB | Лицензия

317 | 22

1.45 ГБ

В этой теме нет новых непрочитанных сообщений. О чём молчат девушки (2013) BDRip 720p от leonardo 59 | iPad

1 | 10

2.93 ГБ

В этой теме нет новых непрочитанных сообщений. О чём молчат девушки (2013) BDRip 720p от potroks | Лицензия

228 | 8

2.19 ГБ




Вы не можете начинать темы
Вы не можете отвечать на сообщения
Вы не можете редактировать свои сообщения
Вы не можете удалять свои сообщения
Вы не можете добавлять вложения

Перейти:  
Для Мосгорсуда, Роскомнадзора и рекламодателей: mosgorsud-torrent[собачка]yandex.ru
 Вход
ppkBB3cker v.2 © 2008-2014 @ PPK
[ Time : 0.037s | 16 Queries | GZIP : Off ]

Торрент трекер RUTOR.IN, Не можете зайти на rutor.org? Какой новый адрес рутор? Какое зеркало рутор? Не работает rutor.org и зеркала? Тогда наш торрент специально для вас. Rutor.in неофициальное зеркало rutor. В случае если у Вас заблокирован rutor или вдруг Вы не можете на него зайти, то Вы без труда сможете скачать бесплатно и без рекламы последние новинки кино, игр, сериалов и прочего у нас, на Rutor.in. Не нужно использовать прокси, чтобы зайти на рутор, достаточно воспользоваться нашим ресурсом. Все новые фильмы, игры, сериалы, книги и музыка за 2013 и 2014 годы через торрент бесплатно. Скачивайте фильмы в хорошем качестве, игры для пк, xbox, playstation без регистрации. У нас вы найдете новые Зарубежные сериалы и Русские сериалы 2013, 2014, 2015 годов. Оставайтесь с нами, качайте любимые фильмы, игры, сериалы, книги и музыку.
cron