img image001 image001 image001 image001 image001 image001 image001 image001 image001 image001 image001 image001 image001 image001 image001

Planets Sun Sun Sun
Статистика раздачи
Автор: Снежана | Размер: 7.5 ГБ | Добавлен: 24 июл 2013
Раздают: 8    Качают: 21
Скачать торрент
Скачать торрент
Описание торрента

СообщениеДобавлено: 24 июл 2013 

#77

Информация о фильме
Название: В зоне особого внимания / Ответный ход
Оригинальное название: Absprung in die Todeszone & Der Gegenzug
Год выхода: 1977-1981
Жанр: Боевик, военный
Режиссер: Андрей Малюков, Михаил Туманишвили
В ролях: Борис Галкин, Михай Волонтир, Сергей Волкош, Игорь Иванов, Анатолий Кузнецов, Александр Пятков, Елена Цыплакова, Юрий Чернов, Александр Гай, Николай Крюков, Вадим Спиридонов, Елена Глебова, Лаймонас Норейка, Даниил Нетребин, Владимир Маренков, Михаил Чигарев, Анатолий Ромашин, Леонид Белозорович
В зоне особого внимания : Готовятся большие военные учения. Командир гвардейского полка направляет в тыл «врага» три развед-диверсионные группы для обнаружения и захвата замаскированного командного пункта. Срок исполнения — двое суток. Разведчики выполняют задание в условиях, максимально приближенных к бою…
Ответный ход :Вторая часть дилогии, начатой фильмом `В зоне особого внимания`. Действие вновь разворачивается во время крупных войсковых учений. Однако на этот раз перед десантниками поставлены более сложные задачи...
Страна: СССР
Студия: Мосфильм
Продолжительность: 01:32:17 + 01:19:42
Язык: Русский, немецкий
Издание: Немецкий ДВД



Файл
Кодек: MPEG-2
Качество: DVD-9
Видео: PAL 16:9 (720x576) VBR
Звук: Русский, немецкий (Dolby AC3, 2 ch)


Title: Ëîêàëüíûé äèñê
Size: 7.50 Gb ( 7 859 740 KBytes ) - DVD-9
Enabled regions: 1, 2, 3, 4, 5, 6, 7, 8

VTS_01 :
Play Length: 01:32:17+01:19:42
Video: PAL 16:9 (720x576) VBR, Auto Pan&Scan
Audio:
Deutsch (Dolby AC3, 2 ch)
Russian (Dolby AC3, 2 ch)

VTS_02 :
Play Length: 00:00:12
Video: PAL 16:9 (720x576) VBR, Auto Pan&Scan
Audio:
Deutsch (Dolby AC3, 2 ch)

Menu Video:
PAL 4:3 (720x576) VBR
Menu Subtitles:
Not specified
Menu English Language Unit :
Root Menu


Общее
Полное имя : D:1АААAbsprung_in_Todeszone_GegenzugVIDEO_TSVTS_01_1.VOB
Формат : MPEG-PS
Размер файла : 1000 Мбайт
Продолжительность : 24 м.
Режим общего битрейта : Переменный
Общий поток : 5607 Кбит/сек

Видео
Идентификатор : 224 (0xE0)
Формат : MPEG Video
Версия формата : Version 2
Профиль формата : Main@Main
Параметр BVOP формата : Да
Параметр матрицы формата : Выборочная
Параметр GOP формата : Variable
Продолжительность : 24 м.
Вид битрейта : Переменный
Битрейт : 5112 Кбит/сек
Максимальный битрейт : 9800 Кбит/сек
Ширина : 720 пикселей
Высота : 576 пикселей
Соотношение сторон : 16:9
Частота кадров : 25,000 кадров/сек
Стандарт вещания : PAL
Цветовое пространство : YUV
Субдискретизация насыщенности : 4:2:0
Битовая глубина : 8 бит
Тип развёртки : Прогрессивная
Порядок развёртки : Верхнее поле первое
Метод сжатия : С потерями
Бит/(Пиксели*Кадры) : 0.493
TimeCode_FirstFrame : 01:00:00:00
TimeCode_Source : Group of pictures header
Размер потока : 912 Мбайт (91%)

Аудио #1
Идентификатор : 189 (0xBD)-128 (0x80)
Формат : AC-3
Формат/Информация : Audio Coding 3
Расширение режима : CM (complete main)
Параметр Endianness формата : Big
Режим смешивания : DVD-Video
Продолжительность : 24 м.
Вид битрейта : Постоянный
Битрейт : 192 Кбит/сек
Каналы : 2 канала
Расположение каналов : Front: L R
Частота : 48,0 КГц
Битовая глубина : 16 бит
Метод сжатия : С потерями
Размер потока : 34,2 Мбайт (3%)

Аудио #2
Идентификатор : 189 (0xBD)-129 (0x81)
Формат : AC-3
Формат/Информация : Audio Coding 3
Расширение режима : CM (complete main)
Параметр Endianness формата : Big
Режим смешивания : DVD-Video
Продолжительность : 24 м.
Вид битрейта : Постоянный
Битрейт : 192 Кбит/сек
Каналы : 2 канала
Расположение каналов : Front: L R
Частота : 48,0 КГц
Битовая глубина : 16 бит
Метод сжатия : С потерями
Размер потока : 34,2 Мбайт (3%)

Меню





   Похожие торренты   Торрент   Размер 
В этой теме нет новых непрочитанных сообщений. В зоне особого внимания + Ответный ход (1977-1981) DVDRip

0 | 305

1.41 ГБ

В этой теме нет новых непрочитанных сообщений. В зоне особого внимания + Ответный ход (1978-1981) DVDRip-AVC

388 | 75

2.55 ГБ

В этой теме нет новых непрочитанных сообщений. В зоне особого внимания (1977) DVDRip

506 | 15

1.46 ГБ

В этой теме нет новых непрочитанных сообщений. В зоне особого внимания (1977) DVDRip

82 | 11

745.72 МБ

В этой теме нет новых непрочитанных сообщений. В зоне особого внимания (1977) DVDRip от MediaClub | КПК

23 | 7

417.55 МБ

В этой теме нет новых непрочитанных сообщений. В зоне особого внимания (1977) HDTV 1080i

23 | 3

6.1 ГБ

В этой теме нет новых непрочитанных сообщений. В зоне особого внимания (1977) DVD5 by гаврила

77 | 11

3.94 ГБ




Вы не можете начинать темы
Вы не можете отвечать на сообщения
Вы не можете редактировать свои сообщения
Вы не можете удалять свои сообщения
Вы не можете добавлять вложения

Перейти:  
Для Мосгорсуда, Роскомнадзора и рекламодателей: mosgorsud-torrent[собачка]yandex.ru
 Вход
ppkBB3cker v.2 © 2008-2014 @ PPK
[ Time : 0.050s | 15 Queries | GZIP : Off ]

cron