img image001 image001 image001 image001 image001 image001 image001 image001 image001 image001 image001 image001 image001 image001 image001

Planets Sun Sun Sun
Статистика раздачи
Автор: Снежана | Размер: 2.18 ГБ | Добавлен: 24 июл 2013
Раздают: 38    Качают: 4
Скачать торрент
Скачать торрент
Описание торрента

СообщениеДобавлено: 24 июл 2013 

#77

Год выпуска: 2011
Производство: Россия / Enjoy Movies
Жанр: Комедия
Продолжительность: 01:23:53
Перевод: Оригинал [лицензия]


Режиссер: Сарик Андреасян

В ролях: Дмитрий Дюжев, Михаил Галустян, Анна Седокова, Вилле Хаапасало, Светлана Ходченкова, Дмитрий Шаракоис, Дмитрий Хрусталев, Виктор Васильев, Валентин Смирнитский, Людмила Артемьева

О фильме: Главный герой - ведущий новостей на музыкальном канале Сергей Добролюбов. Своим консерватизмом он явно выбивается из коллектива модного канала. Его скепсис по отношению к чему-то новому - повод для насмешек коллег. Он точно не "звезда" канала. Сергей с женой очень хотят ребенка, но у них есть с этим проблемы. Помочь им может чудо, но Сергей в чудеса не верит... до определенного момента. Чудесным образом желание Сергея иметь ребенка исполняется… он беременеет?! Теперь уже нашему герою предстоит выступить перед близкими живым доказательством того, что чудеса случаются! Особенно символично, что эту новость жена, родители, брат, друг Жора узнали за ужином в честь Дня защитников Отечества. У последнего оказался вполне практичный подход к чуду. Жора убедил Сергея, что беременность не повод скрываться, а возможность обрести славу и деньги. Шоу «Беременный» становится самым популярным телевизионным проектом, а его главный герой - Сергей Добролюбов - настоящей звездой. Но совмещение статусов "мужчины, ждущего ребенка" и "звезды" оказывается непростой задачей.


Бюджет: $2 000 000





Качество: BDRip 720p [Blu-Ray]
Формат: MKV
Видео: H.264, 1280x544 (2,35:1); 24,000 fps; 3090 kbps; 0.185 bit/pixel
Аудио: 48 kHz, AC3 Dolby Digital, 3/2 (L,C,R,l,r) + LFE ch, ~640.00 kbps avg


Автор рипа:



Общее
Уникальный идентификатор : 218813654187931039139072276833780826640 (0xA49DFA15141B2A978549C39603AB0210)
Полное имя : Beremennyi.2011.O.BDRip.x264.potroks.mkv
Формат : Matroska
Версия формата : Version 2
Размер файла : 2,18 Гбайт
Продолжительность : 1 ч. 23 м.
Общий поток : 3721 Кбит/сек
Название фильма : -=POTROKS=-
Дата кодирования : UTC 2011-12-14 23:27:03
Программа кодирования : mkvmerge v5.0.1 ('Es ist Sommer') built on Oct 9 2011 11:55:43
Библиотека кодирования : libebml v1.2.2 + libmatroska v1.3.0

Видео
Идентификатор : 1
Формат : AVC
Формат/Информация : Advanced Video Codec
Профиль формата : High@L4.1
Параметр CABAC формата : Да
Параметр ReFrames формата : 13 кадров
Идентификатор кодека : V_MPEG4/ISO/AVC
Продолжительность : 1 ч. 23 м.
Битрейт : 3090 Кбит/сек
Ширина : 1280 пикселей
Высота : 544 пикселя
Соотношение сторон : 2,35:1
Режим частоты кадров : Постоянный
Частота кадров : 24,000 кадра/сек
Цветовое пространство : YUV
Субдискретизация насыщенности : 4:2:0
Битовая глубина : 8 бит
Тип развёртки : Прогрессивная
Бит/(Пиксели*Кадры) : 0.185
Размер потока : 1,76 Гбайт (81%)
Заголовок : Beremennyi.2011.O.BDRip.x264.potroks
Библиотека кодирования : x264 core 115 r1937 aa21558
Настройки программы : cabac=1 / ref=13 / deblock=1:-2:-2 / analyse=0x3:0x133 / me=umh / subme=10 / psy=1 / psy_rd=1.00:0.10 / mixed_ref=1 / me_range=32 / chroma_me=1 / trellis=2 / 8x8dct=1 / cqm=0 / deadzone=21,11 / fast_pskip=0 / chroma_qp_offset=-3 / threads=10 / sliced_threads=0 / nr=0 / decimate=1 / interlaced=0 / bluray_compat=0 / constrained_intra=0 / bframes=12 / b_pyramid=2 / b_adapt=2 / b_bias=0 / direct=3 / weightb=1 / open_gop=1 / weightp=2 / keyint=250 / keyint_min=25 / scenecut=40 / intra_refresh=0 / rc_lookahead=60 / rc=2pass / mbtree=1 / bitrate=3090 / ratetol=1.0 / qcomp=0.60 / qpmin=0 / qpmax=69 / qpstep=4 / cplxblur=20.0 / qblur=0.5 / ip_ratio=1.40 / aq=1:1.50
Язык : Russian
Default : Да
Forced : Нет

Аудио
Идентификатор : 2
Формат : AC-3
Формат/Информация : Audio Coding 3
Расширение режима : CM (complete main)
Параметр Endianness формата : Big
Идентификатор кодека : A_AC3
Продолжительность : 1 ч. 23 м.
Вид битрейта : Постоянный
Битрейт : 640 Кбит/сек
Каналы : 6 каналов
Расположение каналов : Front: L C R, Side: L R, LFE
Частота : 48,0 КГц
Битовая глубина : 16 бит
Метод сжатия : С потерями
Размер потока : 384 Мбайт (17%)
Язык : Russian
Default : Да
Forced : Да





   Похожие торренты   Торрент   Размер 
В этой теме нет новых непрочитанных сообщений. Беременный (2011) DVDRip-AVC от potroks | Лицензия

9 | 3

1.37 ГБ

В этой теме нет новых непрочитанных сообщений. Беременный (2011) BDRip от HELLYWOOD

27 | 3

1.45 ГБ

В этой теме нет новых непрочитанных сообщений. Беременный (2011) BDRip от HQCLUB | Лицензия

72 | 5

1.45 ГБ

В этой теме нет новых непрочитанных сообщений. Беременный (2011) BDRip от ivandubskoj | Лицензия

20 | 10

701.46 МБ

В этой теме нет новых непрочитанных сообщений. Беременный (2011) Blu-ray 1080p | Лицензия

4 | 3

21.69 ГБ

В этой теме нет новых непрочитанных сообщений. Беременный (2011) DVD9 | Лицензия

2 | 2

6.57 ГБ

В этой теме нет новых непрочитанных сообщений. Беременный (2011) DVDRip | КПК от Generalfilm

2 | 2

244.3 МБ




Вы не можете начинать темы
Вы не можете отвечать на сообщения
Вы не можете редактировать свои сообщения
Вы не можете удалять свои сообщения
Вы не можете добавлять вложения

Перейти:  
Для Мосгорсуда, Роскомнадзора и рекламодателей: mosgorsud-torrent[собачка]yandex.ru
 Вход
ppkBB3cker v.2 © 2008-2014 @ PPK
[ Time : 0.634s | 14 Queries | GZIP : On ]

Торрент трекер RUTOR.IN, Не можете зайти на rutor.org? Какой новый адрес рутор? Какое зеркало рутор? Не работает rutor.org и зеркала? Тогда наш торрент специально для вас. Rutor.in неофициальное зеркало rutor. В случае если у Вас заблокирован rutor или вдруг Вы не можете на него зайти, то Вы без труда сможете скачать бесплатно и без рекламы последние новинки кино, игр, сериалов и прочего у нас, на Rutor.in. Не нужно использовать прокси, чтобы зайти на рутор, достаточно воспользоваться нашим ресурсом. Все новые фильмы, игры, сериалы, книги и музыка за 2013 и 2014 годы через торрент бесплатно. Скачивайте фильмы в хорошем качестве, игры для пк, xbox, playstation без регистрации. У нас вы найдете новые Зарубежные сериалы и Русские сериалы 2013, 2014, 2015 годов. Оставайтесь с нами, качайте любимые фильмы, игры, сериалы, книги и музыку.