img image001 image001 image001 image001 image001 image001 image001 image001 image001 image001 image001 image001 image001 image001 image001

Planets Sun Sun Sun
Статистика раздачи
Автор: Снежана | Размер: 7.95 ГБ | Добавлен: 24 июл 2013
Раздают: 17    Качают: 7
Скачать торрент
Скачать торрент
Описание торрента

СообщениеДобавлено: 24 июл 2013 

Трое в лодке, не считая собаки 2 - серии




#77

Год выпуска: 1979
Страна: СССР
Жанр: мюзикл, комедия
Продолжительность: 2 х 01:06:24
Перевод: Не требуется

Режиссер: Наум Бирман
Сценарий: Семен Лунгин, Джером К. Джером
Оператор: Генрих Маранджян
Композитор: Александр Колкер
Художник: Исаак Каплан
Монтаж: Изольда Головко

В ролях: Андрей Миронов (Джером К. Джером, Джи, миссис Байкли, трактирщик, посетитель трактира, дядюшка Поджер), Александр Ширвиндт (Харрис), Михаил Державин (Джордж), Лариса Голубкина (Энн), Алина Покровская (Эмилия), Ирина Мазуркевич (Патриция), Георгий Штиль (усатый капитан), Зиновий Гердт (могильщик)


Описание: По одноименной повести Джерома К. Джерома. Однажды трое приятелей-холостяков, лондонских жителей, решили сделаться ближе к природе и отправиться в лодочное путешествие по Темзе, прихватив с собой собачку Монморенси…




Качество: BDRip
Формат: MKV
Видео кодек: AVC
Аудио кодеk: AC3
Видео 1с: 1480x1080 (1.370:1), 23.976 fps, AVC, 8 122 Kbps
Видео 2с: 1480x1080 (1.370:1), 23.976 fps, AVC, 8 168 Kbps
Аудио: AC3, 448 Kbps, 48.0 KHz, 6 ch





Лог:
-[NoImage] x264 [info]: frame I:488 Avg QP:17.93 size:171886
-[NoImage] x264 [info]: frame P:20087 Avg QP:20.51 size: 85958
-[NoImage] x264 [info]: frame B:74955 Avg QP:22.53 size: 29815

-[NoImage] x264 [info]: frame I:540 Avg QP:18.59 size:167791
-[NoImage] x264 [info]: frame P:20573 Avg QP:21.20 size: 84948
-[NoImage] x264 [info]: frame B:73893 Avg QP:23.15 size: 29866

General
Complete name : 1seriya.mkv + 2.seriya.mkv
Format : Matroska
File size : 3.98 GiB + 3.98 GiB
Duration : 1h 6mn
Overall bit rate : 8 572 Kbps + 8 573 Kbps
Encoded date : UTC 2013-04-25 17:05:47
Writing application : mkvmerge v6.1.0 ('Old Devil') built on Mar 2 2013 14:32:37
Writing library : libebml v1.3.0 + libmatroska v1.4.0

Video
ID : 1
Format : AVC
Format/Info : Advanced Video Codec
Format profile : High@L4.1
Format settings, CABAC : Yes
Format settings, ReFrames : 4 frames
Muxing mode : Container profile=Unknown@4.1
Codec ID : V_MPEG4/ISO/AVC
Duration : 1h 6mn
Bit rate : 8 122 Kbps + 8 168 Kbps
Width : 1 480 pixels
Height : 1 080 pixels
Display aspect ratio : 1.370
Frame rate : 23.976 fps
Color space : YUV
Chroma subsampling : 4:2:0
Bit depth : 8 bits
Scan type : Progressive
Bits/(Pixel*Frame) : 0.212
Stream size : 3.69 GiB (93%)
Writing library : x264 core 130 r2273 b3065e6
Encoding settings : cabac=1 / ref=4 / deblock=1:-1:-1 / analyse=0x3:0x133 / me=umh / subme=10 / psy=1 / psy_rd=1.00:0.00 / mixed_ref=1 / me_range=32 / chroma_me=1 / trellis=2 / 8x8dct=1 / cqm=0 / deadzone=21,11 / fast_pskip=0 / chroma_qp_offset=-2 / threads=6 / lookahead_threads=1 / sliced_threads=0 / nr=0 / decimate=1 / interlaced=0 / bluray_compat=0 / constrained_intra=0 / bframes=10 / b_pyramid=2 / b_adapt=2 / b_bias=0 / direct=3 / weightb=1 / open_gop=0 / weightp=2 / keyint=240 / keyint_min=24 / scenecut=40 / intra_refresh=0 / rc_lookahead=50 / rc=2pass / mbtree=0 / bitrate=8122 / ratetol=1.0 / qcomp=1.00 / qpmin=0 / qpmax=51 / qpstep=4 / cplxblur=20.0 / qblur=0.5 / vbv_maxrate=38000 / vbv_bufsize=30000 / nal_hrd=none / ip_ratio=1.40 / pb_ratio=1.30 / aq=1:1.00
Color primaries : BT.709-5, BT.1361, IEC 61966-2-4, SMPTE RP177
Transfer characteristics : BT.709-5, BT.1361
Matrix coefficients : BT.709-5, BT.1361, IEC 61966-2-4 709, SMPTE RP177

Audio
ID : 2
Format : AC-3
Format/Info : Audio Coding 3
Mode extension : CM (complete main)
Codec ID : A_AC3
Duration : 1h 6mn
Bit rate mode : Constant
Bit rate : 448 Kbps
Channel(s) : 6 channels
Channel positions : Front: L C R, Side: L R, LFE
Sampling rate : 48.0 KHz
Bit depth : 16 bits
Stream size : 213 MiB (5%)
Language : Russian


★ Многие эпизоды в фильме появились как экспромт.

★ Фильм снимался в Калининградской области в окрестностях г. Советск и г. Неман, а также в самих городах, а роль Темзы сыграли пограничная река Неман и река Шешупе.

★ Роль Монморанси играли два фокстерьера с весьма несхожими характерами.






Релиз группы:



   Похожие торренты   Торрент   Размер 
В этой теме нет новых непрочитанных сообщений. Трое в лодке, не считая собаки (1979) BDRip 1080p от HDClub

8 | 3

11.27 ГБ

В этой теме нет новых непрочитанных сообщений. Трое в лодке, не считая собаки (1979) BDRip от New-Team

133 | 11

1.34 ГБ

В этой теме нет новых непрочитанных сообщений. Трое в лодке, не считая собаки (1979) BDRip от HQCLUB

90 | 5

2.17 ГБ

В этой теме нет новых непрочитанных сообщений. Трое в лодке, не считая собаки (1979) BDRip от MediaClub

3 | 2

2.18 ГБ

В этой теме нет новых непрочитанных сообщений. Трое в лодке, не считая собаки (1979) BDRip-AVC от MediaClub

15 | 3

3.01 ГБ

В этой теме нет новых непрочитанных сообщений. Трое в лодке, не считая собаки (1979) BDRip-AVC от New-Team

68 | 6

2.19 ГБ

В этой теме нет новых непрочитанных сообщений. Трое в лодке, не считая собаки (1979) BDRip от New-Team

13 | 5

2.19 ГБ




Вы не можете начинать темы
Вы не можете отвечать на сообщения
Вы не можете редактировать свои сообщения
Вы не можете удалять свои сообщения
Вы не можете добавлять вложения

Перейти:  
Для Мосгорсуда, Роскомнадзора и рекламодателей: mosgorsud-torrent[собачка]yandex.ru
 Вход
ppkBB3cker v.2 © 2008-2014 @ PPK
[ Time : 0.054s | 14 Queries | GZIP : Off ]

Торрент трекер RUTOR.IN, Не можете зайти на rutor.org? Какой новый адрес рутор? Какое зеркало рутор? Не работает rutor.org и зеркала? Тогда наш торрент специально для вас. Rutor.in неофициальное зеркало rutor. В случае если у Вас заблокирован rutor или вдруг Вы не можете на него зайти, то Вы без труда сможете скачать бесплатно и без рекламы последние новинки кино, игр, сериалов и прочего у нас, на Rutor.in. Не нужно использовать прокси, чтобы зайти на рутор, достаточно воспользоваться нашим ресурсом. Все новые фильмы, игры, сериалы, книги и музыка за 2013 и 2014 годы через торрент бесплатно. Скачивайте фильмы в хорошем качестве, игры для пк, xbox, playstation без регистрации. У нас вы найдете новые Зарубежные сериалы и Русские сериалы 2013, 2014, 2015 годов. Оставайтесь с нами, качайте любимые фильмы, игры, сериалы, книги и музыку.