img image001 image001 image001 image001 image001 image001 image001 image001 image001 image001 image001 image001 image001 image001 image001

Planets Sun Sun Sun
Статистика раздачи
Автор: Снежана | Размер: 1.29 ГБ | Добавлен: 24 июл 2013
Раздают: 400    Качают: 16
Скачать торрент
Скачать торрент
Описание торрента

СообщениеДобавлено: 24 июл 2013 

#77

Год выпуска: 2001
Производство: Россия / Film Studio.ru
Жанр: Комедия
Продолжительность: 01:19:50
Перевод: Оригинал
Субтитры: Русские (х2)


Режиссер: Роман Качанов

В ролях: Федор Бондарчук, Иван Охлобыстин, Артемий Троицкий, Елена Кондулайнен, Барбара Брыльска, Александр Баширов, Анна Букловская, Елена Котельникова, Юозас Будрайтис, Наталья Симакова

О фильме: Современная интерпретация романа Ф. М. Достоевского «Идиот». Фильм, сохраняя основную сюжетную линию романа, переносит нас во вторую половину 90-х годов XX века: «новые русские», джипы Hummer, тяжёлые наркотики и так далее. Фильм гротескно, в комедийной форме показывает социальные отношения и прелести современного псевдобогемного общества.






Качество: DVDRip-AVC [DVD5]
Формат: MKV
Видео: H.264, 720x576 @ 962x576 (1,67:1); 25,000 fps; 1824 kbps; 0.176 bit/pixel
Аудио: 48 kHz, AC3 Dolby Digital, 3/2 (L,C,R,l,r) + LFE ch, ~448.00 kbps avg


Автор рипа:



Общее
Уникальный идентификатор : 191840122016402940422691740495721467077 (0x90531044FC2FC142A5EE655C10930CC5)
Полное имя : Daun.Haus.O.DVDRip.x264.potroks.mkv
Формат : Matroska
Версия формата : Version 4 / Version 2
Размер файла : 1,29 Гбайт
Продолжительность : 1 ч. 19 м.
Общий поток : 2318 Кбит/сек
Название фильма : -=POTROKS=-
Дата кодирования : UTC 2013-04-26 08:21:17
Программа кодирования : mkvmerge v5.9.0 ('On The Loose') built on Dec 15 2012 16:39:58
Библиотека кодирования : libebml v1.3.0 + libmatroska v1.4.0

Видео
Идентификатор : 1
Формат : AVC
Формат/Информация : Advanced Video Codec
Профиль формата : High@L3.0
Параметр CABAC формата : Да
Параметр ReFrames формата : 3 кадра
Идентификатор кодека : V_MPEG4/ISO/AVC
Продолжительность : 1 ч. 19 м.
Битрейт : 1824 Кбит/сек
Ширина : 720 пикселей
Высота : 576 пикселей
Соотношение сторон : 1,670
Соотношение сторон в оригинале : 5:4
Режим частоты кадров : Постоянный
Частота кадров : 25,000 кадров/сек
Стандарт вещания : PAL
Цветовое пространство : YUV
Субдискретизация насыщенности : 4:2:0
Битовая глубина : 8 бит
Тип развёртки : Прогрессивная
Бит/(Пиксели*Кадры) : 0.176
Размер потока : 1,02 Гбайт (79%)
Заголовок : Даун Хаус
Библиотека кодирования : x264 core 65 r999kMod cc51047
Настройки программы : cabac=1 / ref=3 / deblock=1:-2:-1 / analyse=0x3:0x113 / me=esa / subme=9 / psy_rd=1.0:0.0 / mixed_ref=1 / me_range=16 / chroma_me=1 / trellis=2 / 8x8dct=1 / cqm=0 / deadzone=21,11 / chroma_qp_offset=-2 / threads=4 / thread_queue=4 / nr=0 / decimate=0 / mbaff=0 / bframes=3 / b_pyramid=0 / b_adapt=1 / b_bias=0 / direct=1 / wpredb=1 / keyint=250 / keyint_min=25 / scenecut=40(pre) / rc=crf / crf=19.5000 / qcomp=0.60 / qpmin=10 / qpmax=51 / qpstep=4 / ip_ratio=1.40 / pb_ratio=1.30 / aq=1:1.00
Язык : Russian
Default : Да
Forced : Нет

Аудио
Идентификатор : 2
Формат : AC-3
Формат/Информация : Audio Coding 3
Расширение режима : CM (complete main)
Параметр Endianness формата : Big
Идентификатор кодека : A_AC3
Продолжительность : 1 ч. 19 м.
Вид битрейта : Постоянный
Битрейт : 448 Кбит/сек
Каналы : 6 каналов
Расположение каналов : Front: L C R, Side: L R, LFE
Частота : 48,0 КГц
Битовая глубина : 16 бит
Метод сжатия : С потерями
Задержка видео : 500 мс.
Размер потока : 256 Мбайт (19%)
Заголовок : DD 5.1 @ 448 kbps
Язык : Russian
Default : Да
Forced : Нет

Текст #1
Идентификатор : 3
Формат : UTF-8
Идентификатор кодека : S_TEXT/UTF8
Идентификатор кодека/Информация : UTF-8 Plain Text
Язык : Russian
Default : Нет
Forced : Нет

Текст #2
Идентификатор : 4
Формат : UTF-8
Идентификатор кодека : S_TEXT/UTF8
Идентификатор кодека/Информация : UTF-8 Plain Text
Язык : Russian
Default : Нет
Forced : Нет





   Похожие торренты   Торрент   Размер 
В этой теме нет новых непрочитанных сообщений. Даун Хаус (2001) DVDRip

1479 | 71

1.46 ГБ

В этой теме нет новых непрочитанных сообщений. Даун Хаус (2001) DVD5

14 | 10

4.26 ГБ

В этой теме нет новых непрочитанных сообщений. Хамелеон / Le placard (2001) BDRip-AVC от potroks

18 | 3

1.64 ГБ

В этой теме нет новых непрочитанных сообщений. Шпионские игры / Spy Game (2001) HDRip-AVC от potroks

54 | 5

2.05 ГБ

В этой теме нет новых непрочитанных сообщений. Гарри Поттер: Коллекция / Harry Potter: Collection (2001-2011) HDRip-AVC от potroks

269 | 54

17.12 ГБ

В этой теме нет новых непрочитанных сообщений. Доктор Хаус / House M.D. [S3] (2006) DVDRip

36 | 13

7.05 ГБ

В этой теме нет новых непрочитанных сообщений. Доктор Хаус / House M.D. [S2] (2005) DVDRip

40 | 9

8.15 ГБ




Вы не можете начинать темы
Вы не можете отвечать на сообщения
Вы не можете редактировать свои сообщения
Вы не можете удалять свои сообщения
Вы не можете добавлять вложения

Перейти:  
Для Мосгорсуда, Роскомнадзора и рекламодателей: mosgorsud-torrent[собачка]yandex.ru
 Вход
ppkBB3cker v.2 © 2008-2014 @ PPK
[ Time : 0.040s | 15 Queries | GZIP : Off ]

cron