img image001 image001 image001 image001 image001 image001 image001 image001 image001 image001 image001 image001 image001 image001 image001

Planets Sun Sun Sun
Статистика раздачи
Автор: Снежана | Размер: 743.67 МБ | Добавлен: 24 июл 2013
Раздают: 27    Качают: 15
Скачать торрент
Скачать торрент
Описание торрента

СообщениеДобавлено: 24 июл 2013 

#77
Страна: СССР
Производство: Студия Горького
Жанр: военный
Год выпуска: 1968
Продолжительность: 01:28:13

Перевод: не требуется
Оригинальная аудиодорожка: русский
Cубтитры: нет

Режиссер: Лев Мирский

В ролях: Виктор Жуков, Валерий Малышев, Владимир Грамматиков, Виктор Филиппов, Наталья Величко, Сергей Пожарский, Виктор Задубровский, Валерий Кузьмин, Виктор Шахов, Шавкат Газиев, Леонид Реутов, Станислав Симонов, Евгений Евстигнеев, Николай Ф.Волков...

Описание:
Фильм посвящен рассказу о героических подвигах одного из храбрых разведчиков Великой Отечественной войны. Отличительная особенность этой киноистории — то, что его главному герою… едва исполнилось двенадцать лет…





Исходник: DVD5 R5
Тип релиза: DVDRip-AVC
Контейнер: MKV

Видео: 696x382@744x382 (1,950:1), 25 fps, H264 ~ 984 kbps avg, 0.148 bit/pixel
Аудио: 48 kHz, Dolby AC3 2.0, 192 kbps

Раздача от:
Общее
Полное имя : Jeto.bylo.v.razvedke.1968.DVDRip-AVC_[Youtracker]_by_AVP Studio.mkv
Формат : Matroska
Версия формата : Version 2
Размер файла : 744 Мбайт
Продолжительность : 1 ч. 28 м.
Общий поток : 1178 Кбит/сек
Дата кодирования : UTC 2013-04-26 15:12:03
Программа кодирования : mkvmerge v5.0.1 ('Es ist Sommer') built on Nov 6 2011 16:23:40
Библиотека кодирования : libebml v1.2.2 + libmatroska v1.3.0

Видео
Идентификатор : 1
Формат : AVC
Формат/Информация : Advanced Video Codec
Профиль формата : High@L4.1
Параметр CABAC формата : Да
Параметр ReFrames формата : 11 кадров
Идентификатор кодека : V_MPEG4/ISO/AVC
Продолжительность : 1 ч. 28 м.
Битрейт : 984 Кбит/сек
Ширина : 696 пикселей
Высота : 382 пикселя
Соотношение сторон : 1,950
Соотношение сторон в оригинале : 1,949
Частота кадров : 25,000 кадров/сек
Цветовое пространство : YUV
Субдискретизация насыщенности : 4:2:0
Битовая глубина : 8 бит
Тип развёртки : Прогрессивная
Бит/(Пиксели*Кадры) : 0.148
Размер потока : 608 Мбайт (82%)
Библиотека кодирования : x264 core 119 r2106 07efeb4
Настройки программы : cabac=1 / ref=11 / deblock=1:-2:-1 / analyse=0x3:0x113 / me=umh / subme=9 / psy=1 / psy_rd=1.00:0.20 / mixed_ref=1 / me_range=32 / chroma_me=1 / trellis=1 / 8x8dct=1 / cqm=0 / deadzone=21,11 / fast_pskip=0 / chroma_qp_offset=-3 / threads=3 / sliced_threads=0 / nr=0 / decimate=0 / interlaced=0 / bluray_compat=0 / constrained_intra=0 / bframes=8 / b_pyramid=2 / b_adapt=2 / b_bias=0 / direct=3 / weightb=1 / open_gop=0 / weightp=2 / keyint=250 / keyint_min=25 / scenecut=40 / intra_refresh=0 / rc_lookahead=60 / rc=2pass / mbtree=1 / bitrate=984 / ratetol=1.0 / qcomp=0.60 / qpmin=0 / qpmax=69 / qpstep=4 / cplxblur=20.0 / qblur=0.5 / ip_ratio=1.40 / aq=1:1.00
Default : Да
Forced : Нет

Аудио
Идентификатор : 2
Формат : AC-3
Формат/Информация : Audio Coding 3
Расширение режима : CM (complete main)
Идентификатор кодека : A_AC3
Продолжительность : 1 ч. 28 м.
Вид битрейта : Постоянный
Битрейт : 192 Кбит/сек
Каналы : 2 канала
Расположение каналов : Front: L R
Частота : 48,0 КГц
Битовая глубина : 16 бит
Метод сжатия : С потерями
Размер потока : 121 Мбайт (16%)
Default : Да
Forced : Нет





   Похожие торренты   Торрент   Размер 
В этой теме нет новых непрочитанных сообщений. Это было в разведке (1968) DVDRip от Youtracker

7 | 24

743.31 МБ

В этой теме нет новых непрочитанных сообщений. Это было в разведке (1968) DVDRip

75 | 19

1.36 ГБ

В этой теме нет новых непрочитанных сообщений. Это было в разведке (1968) DVD5

2 | 3

4.01 ГБ

В этой теме нет новых непрочитанных сообщений. Трембита (1968) DVDRip-AVC от Youtracker

14 | 4

743.84 МБ

В этой теме нет новых непрочитанных сообщений. Разведчики (1968) DVDRip-AVC от Youtracker

59 | 9

744.15 МБ

В этой теме нет новых непрочитанных сообщений. Разведчики (1968) DVDRip от Youtracker

52 | 6

744.18 МБ

В этой теме нет новых непрочитанных сообщений. Трембита (1968) DVDRip от Youtracker

117 | 28

744.63 МБ




Вы не можете начинать темы
Вы не можете отвечать на сообщения
Вы не можете редактировать свои сообщения
Вы не можете удалять свои сообщения
Вы не можете добавлять вложения

Перейти:  
Для Мосгорсуда, Роскомнадзора и рекламодателей: mosgorsud-torrent[собачка]yandex.ru
 Вход
ppkBB3cker v.2 © 2008-2014 @ PPK
[ Time : 0.028s | 15 Queries | GZIP : Off ]

cron