img image001 image001 image001 image001 image001 image001 image001 image001 image001 image001 image001 image001 image001 image001 image001

Planets Sun Sun Sun
Статистика раздачи
Автор: Снежана | Размер: 2.19 ГБ | Добавлен: 24 июл 2013
Раздают: 228    Качают: 8
Скачать торрент
Скачать торрент
Описание торрента

СообщениеДобавлено: 24 июл 2013 

#77


#77

Год выпуска: 2013
Производство: Россия / Централ Партнершип
Жанр: Комедия
Продолжительность: 01:21:57
Перевод: Оригинал [лицензия]


Режиссер: Карен Оганесян

В ролях: Юлия Пересильд, Олеся Судзиловская, Ольга Смирнова, Таисия Вилкова, Михаил Пореченков, Ольга Тумайкина, Игорь Жижикин

О фильме: Четыре подруги сбегают из Москвы на уикенд в солнечную Испанию, чтобы на пляже, в SPA и за коктейлями на террасе расслабиться и поболтать обо всем. Но бывают обстоятельства, в которых девушки начинают говорить о том, о чем они обычно молчат…


Бюджет: $2 500 000





Качество: BDRip 720p [Blu-Ray]
Формат: MKV
Видео: H.264, 1280x674 (1,90:1); 25,000 fps; 3380 kbps; 0.157 bit/pixel
Аудио: 48 kHz, AC3 Dolby Digital, 3/2 (L,C,R,l,r) + LFE ch, ~448.00 kbps avg


Автор рипа:



Общее
Уникальный идентификатор : 205972280821058484624624714571022374273 (0x9AF4D17E620B642F83D341C1180C9581)
Полное имя : O.Chjom.Molchat.Devushki.2013.O.BDRip.x264.potroks.mkv
Формат : Matroska
Версия формата : Version 4 / Version 2
Размер файла : 2,19 Гбайт
Продолжительность : 1 ч. 21 м.
Общий поток : 3828 Кбит/сек
Название фильма : -=POTROKS=-
Дата кодирования : UTC 2013-04-29 09:40:55
Программа кодирования : mkvmerge v5.9.0 ('On The Loose') built on Dec 15 2012 16:39:58
Библиотека кодирования : libebml v1.3.0 + libmatroska v1.4.0

Видео
Идентификатор : 1
Формат : AVC
Формат/Информация : Advanced Video Codec
Профиль формата : High@L4.1
Параметр CABAC формата : Да
Параметр ReFrames формата : 8 кадров
Идентификатор кодека : V_MPEG4/ISO/AVC
Продолжительность : 1 ч. 21 м.
Битрейт : 3380 Кбит/сек
Ширина : 1280 пикселей
Высота : 674 пикселя
Соотношение сторон : 1,899
Режим частоты кадров : Постоянный
Частота кадров : 25,000 кадров/сек
Цветовое пространство : YUV
Субдискретизация насыщенности : 4:2:0
Битовая глубина : 8 бит
Тип развёртки : Прогрессивная
Бит/(Пиксели*Кадры) : 0.157
Размер потока : 1,89 Гбайт (86%)
Заголовок : О чём молчат девушки
Библиотека кодирования : x264 core 125 r2208 d9d2288
Настройки программы : cabac=1 / ref=8 / deblock=1:-2:-1 / analyse=0x3:0x133 / me=umh / subme=9 / psy=1 / psy_rd=1.10:0.05 / mixed_ref=1 / me_range=32 / chroma_me=1 / trellis=2 / 8x8dct=1 / cqm=0 / deadzone=21,11 / fast_pskip=0 / chroma_qp_offset=-3 / threads=9 / lookahead_threads=1 / sliced_threads=0 / nr=0 / decimate=1 / interlaced=0 / bluray_compat=0 / constrained_intra=0 / bframes=9 / b_pyramid=2 / b_adapt=2 / b_bias=0 / direct=3 / weightb=1 / open_gop=0 / weightp=2 / keyint=250 / keyint_min=25 / scenecut=40 / intra_refresh=0 / rc_lookahead=150 / rc=2pass / mbtree=1 / bitrate=3380 / ratetol=1.0 / qcomp=0.70 / qpmin=0 / qpmax=69 / qpstep=4 / cplxblur=20.0 / qblur=0.5 / vbv_maxrate=50000 / vbv_bufsize=62500 / nal_hrd=none / ip_ratio=1.35 / aq=1:0.70
Язык : Russian
Default : Да
Forced : Нет

Аудио
Идентификатор : 2
Формат : AC-3
Формат/Информация : Audio Coding 3
Расширение режима : CM (complete main)
Параметр Endianness формата : Big
Идентификатор кодека : A_AC3
Продолжительность : 1 ч. 21 м.
Вид битрейта : Постоянный
Битрейт : 448 Кбит/сек
Каналы : 6 каналов
Расположение каналов : Front: L C R, Side: L R, LFE
Частота : 48,0 КГц
Битовая глубина : 16 бит
Метод сжатия : С потерями
Размер потока : 263 Мбайт (12%)
Заголовок : DD 5.1 @ 448 kbps
Язык : Russian
Default : Да
Forced : Нет
x264 [info]: frame I:1477 Avg QP:18.89 size: 97665
x264 [info]: frame P:29382 Avg QP:20.28 size: 33472
x264 [info]: frame B:92084 Avg QP:22.56 size: 10304
x264 [info]: consecutive B-frames: 2.1% 2.5% 8.1% 52.1% 13.5% 15.3% 2.1% 3.3% 0.8% 0.3%
x264 [info]: mb I I16..4: 12.9% 70.4% 16.7%
x264 [info]: mb P I16..4: 4.5% 13.1% 2.0% P16..4: 42.6% 14.5% 12.4% 0.6% 0.2% skip:10.1%
x264 [info]: mb B I16..4: 0.5% 1.7% 0.3% B16..8: 35.7% 8.0% 2.3% direct: 4.9% skip:46.6% L0:39.9% L1:45.8% BI:14.3%
x264 [info]: 8x8 transform intra:67.6% inter:68.6%
x264 [info]: direct mvs spatial:97.5% temporal:2.5%
x264 [info]: coded y,uvDC,uvAC intra: 66.8% 77.9% 47.8% inter: 18.2% 24.9% 4.8%
x264 [info]: i16 v,h,dc,p: 30% 22% 6% 42%
x264 [info]: i8 v,h,dc,ddl,ddr,vr,hd,vl,hu: 15% 12% 5% 7% 11% 13% 12% 11% 12%
x264 [info]: i4 v,h,dc,ddl,ddr,vr,hd,vl,hu: 18% 11% 3% 7% 13% 14% 13% 10% 12%
x264 [info]: i8c dc,h,v,p: 33% 25% 23% 18%
x264 [info]: Weighted P-Frames: Y:1.0% UV:0.3%
x264 [info]: ref P L0: 54.7% 13.9% 15.2% 5.0% 3.8% 3.1% 2.4% 1.7% 0.2% 0.0%
x264 [info]: ref B L0: 85.8% 7.4% 3.0% 1.4% 1.3% 0.7% 0.4%
x264 [info]: ref B L1: 95.4% 4.6%
x264 [info]: kb/s:3378.08




   Похожие торренты   Торрент   Размер 
В этой теме нет новых непрочитанных сообщений. О чём молчат девушки (2013) BDRip 720p от leonardo 59 | Лицензия

26 | 6

2.98 ГБ

В этой теме нет новых непрочитанных сообщений. О чём молчат девушки (2013) BDRip | Лицензия

51 | 7

1.37 ГБ

В этой теме нет новых непрочитанных сообщений. О чём молчат девушки (2013) BDRip от HQCLUB | Лицензия

317 | 22

1.45 ГБ

В этой теме нет новых непрочитанных сообщений. О чём молчат девушки (2013) BDRip 720p от leonardo 59 | iPad

1 | 10

2.93 ГБ

В этой теме нет новых непрочитанных сообщений. О чём молчат девушки (2013) DVDRip-AVC | Лицензия

9 | 2

1.46 ГБ

В этой теме нет новых непрочитанных сообщений. О чём молчат девушки (2013) DVDRip | Лицензия

49 | 8

744.14 МБ

В этой теме нет новых непрочитанных сообщений. О чём молчат девушки (2013) DVDRip от Youtracker | лицензия

3 | 3

1.46 ГБ




Вы не можете начинать темы
Вы не можете отвечать на сообщения
Вы не можете редактировать свои сообщения
Вы не можете удалять свои сообщения
Вы не можете добавлять вложения

Перейти:  
Для Мосгорсуда, Роскомнадзора и рекламодателей: mosgorsud-torrent[собачка]yandex.ru
 Вход
ppkBB3cker v.2 © 2008-2014 @ PPK
[ Time : 0.030s | 14 Queries | GZIP : On ]

Торрент трекер RUTOR.IN, Не можете зайти на rutor.org? Какой новый адрес рутор? Какое зеркало рутор? Не работает rutor.org и зеркала? Тогда наш торрент специально для вас. Rutor.in неофициальное зеркало rutor. В случае если у Вас заблокирован rutor или вдруг Вы не можете на него зайти, то Вы без труда сможете скачать бесплатно и без рекламы последние новинки кино, игр, сериалов и прочего у нас, на Rutor.in. Не нужно использовать прокси, чтобы зайти на рутор, достаточно воспользоваться нашим ресурсом. Все новые фильмы, игры, сериалы, книги и музыка за 2013 и 2014 годы через торрент бесплатно. Скачивайте фильмы в хорошем качестве, игры для пк, xbox, playstation без регистрации. У нас вы найдете новые Зарубежные сериалы и Русские сериалы 2013, 2014, 2015 годов. Оставайтесь с нами, качайте любимые фильмы, игры, сериалы, книги и музыку.