img image001 image001 image001 image001 image001 image001 image001 image001 image001 image001 image001 image001 image001 image001 image001

Planets Sun Sun Sun
Статистика раздачи
Автор: Снежана | Размер: 744.67 МБ | Добавлен: 24 июл 2013
Раздают: 27    Качают: 7
Скачать торрент
Скачать торрент
Описание торрента

СообщениеДобавлено: 24 июл 2013 

#77
Страна: СССР
Производство: Ленфильм
Жанр: фэнтези, драма, приключения, семейный
Год выпуска: 1966
Продолжительность: 01:19:38

Перевод: не требуется
Оригинальная аудиодорожка: русский
Cубтитры: нет

Режиссер: Геннадий Казанский

В ролях:
Евгения Мельникова - Бабушка, Наталья Климова - Снежная Королева, Николай Боярский - Советник, Евгений Леонов - Король, Ирина Губанова - Принцесса, Ольга Викландт - Атаманша, Эра Зиганшина - Маленькая Разбойница, Андрей Костричкин - Домовой, Валерий Никитенко - Сказочник, Вера Титова - Чернильница...

Описание:
Фильм-сказка повествует о необыкновенном путешествии скромной маленькой девочки Герды. Она разыскивает своего друга Кея, которого похитила и унесла в свое царство Снежная королева — могущественная злая волшебница.
В поисках любимого друга Герда попадает в замок к хитрому, коварному и в то же время смешному королю, знакомится с лесными разбойниками. На пути у девочки будет много преград до решающей битвы со Снежной королевой. Но верное сердце Герды одолеет все невзгоды…





Исходник: DVD9 R5
Тип релиза: DVDRip-AVC
Контейнер: MKV

Видео: 680->968x388 (2,492:1), 25 fps, H264 ~ 858 kbps avg, 0.130 bit/pixel
Аудио: 48 kHz, Dolby AC3 5.1, 448 kbps

Раздача от:
Общее
Полное имя : Snezhnaja.koroleva.1966.DVDRip-AVC_[Youtracker]_by_AVP Studio.mkv
Формат : Matroska
Версия формата : Version 2
Размер файла : 745 Мбайт
Продолжительность : 1 ч. 19 м.
Общий поток : 1308 Кбит/сек
Дата кодирования : UTC 2013-05-01 01:30:32
Программа кодирования : mkvmerge v5.0.1 ('Es ist Sommer') built on Nov 6 2011 16:23:40
Библиотека кодирования : libebml v1.2.2 + libmatroska v1.3.0

Видео
Идентификатор : 1
Формат : AVC
Формат/Информация : Advanced Video Codec
Профиль формата : High@L4.1
Параметр CABAC формата : Да
Параметр ReFrames формата : 11 кадров
Идентификатор кодека : V_MPEG4/ISO/AVC
Продолжительность : 1 ч. 19 м.
Битрейт : 858 Кбит/сек
Ширина : 680 пикселей
Высота : 388 пикселей
Соотношение сторон : 2,492
Соотношение сторон в оригинале : 2,493
Частота кадров : 25,000 кадров/сек
Цветовое пространство : YUV
Субдискретизация насыщенности : 4:2:0
Битовая глубина : 8 бит
Тип развёртки : Прогрессивная
Бит/(Пиксели*Кадры) : 0.130
Размер потока : 475 Мбайт (64%)
Библиотека кодирования : x264 core 119 r2106 07efeb4
Настройки программы : cabac=1 / ref=11 / deblock=1:-2:-1 / analyse=0x3:0x113 / me=umh / subme=9 / psy=1 / psy_rd=1.00:0.20 / mixed_ref=1 / me_range=32 / chroma_me=1 / trellis=1 / 8x8dct=1 / cqm=0 / deadzone=21,11 / fast_pskip=0 / chroma_qp_offset=-3 / threads=3 / sliced_threads=0 / nr=0 / decimate=0 / interlaced=0 / bluray_compat=0 / constrained_intra=0 / bframes=8 / b_pyramid=2 / b_adapt=2 / b_bias=0 / direct=3 / weightb=1 / open_gop=0 / weightp=2 / keyint=250 / keyint_min=25 / scenecut=40 / intra_refresh=0 / rc_lookahead=60 / rc=2pass / mbtree=1 / bitrate=858 / ratetol=1.0 / qcomp=0.60 / qpmin=0 / qpmax=69 / qpstep=4 / cplxblur=20.0 / qblur=0.5 / ip_ratio=1.40 / aq=1:1.00
Default : Да
Forced : Нет

Аудио
Идентификатор : 2
Формат : AC-3
Формат/Информация : Audio Coding 3
Расширение режима : CM (complete main)
Идентификатор кодека : A_AC3
Продолжительность : 1 ч. 19 м.
Вид битрейта : Постоянный
Битрейт : 448 Кбит/сек
Каналы : 6 каналов
Расположение каналов : Front: L C R, Side: L R, LFE
Частота : 48,0 КГц
Битовая глубина : 16 бит
Метод сжатия : С потерями
Размер потока : 255 Мбайт (34%)
Default : Да
Forced : Нет





   Похожие торренты   Торрент   Размер 
В этой теме нет новых непрочитанных сообщений. Снежная королева (1966) DVDRip от Youtracker

28 | 7

744.95 МБ

В этой теме нет новых непрочитанных сообщений. Снежная королева (1966) DVDRip от Киномагия

21 | 6

1.36 ГБ

В этой теме нет новых непрочитанных сообщений. Снежная королева (1966) DVDRip от New-Team

439 | 35

1.46 ГБ

В этой теме нет новых непрочитанных сообщений. Снежная королева (1957) DVDRip от Youtracker

257 | 13

744.82 МБ

В этой теме нет новых непрочитанных сообщений. Снежная королева (1957) DVDRip-AVC от Youtracker

40 | 5

743.86 МБ

В этой теме нет новых непрочитанных сообщений. Снежная королева (1957-1966) DVD5

13 | 4

4.33 ГБ

В этой теме нет новых непрочитанных сообщений. Снежная королева (2012) BDRip от Youtracker

88 | 5

1.46 ГБ




Вы не можете начинать темы
Вы не можете отвечать на сообщения
Вы не можете редактировать свои сообщения
Вы не можете удалять свои сообщения
Вы не можете добавлять вложения

Перейти:  
Для Мосгорсуда, Роскомнадзора и рекламодателей: mosgorsud-torrent[собачка]yandex.ru
 Вход
ppkBB3cker v.2 © 2008-2014 @ PPK
[ Time : 0.027s | 14 Queries | GZIP : Off ]

Торрент трекер RUTOR.IN, Не можете зайти на rutor.org? Какой новый адрес рутор? Какое зеркало рутор? Не работает rutor.org и зеркала? Тогда наш торрент специально для вас. Rutor.in неофициальное зеркало rutor. В случае если у Вас заблокирован rutor или вдруг Вы не можете на него зайти, то Вы без труда сможете скачать бесплатно и без рекламы последние новинки кино, игр, сериалов и прочего у нас, на Rutor.in. Не нужно использовать прокси, чтобы зайти на рутор, достаточно воспользоваться нашим ресурсом. Все новые фильмы, игры, сериалы, книги и музыка за 2013 и 2014 годы через торрент бесплатно. Скачивайте фильмы в хорошем качестве, игры для пк, xbox, playstation без регистрации. У нас вы найдете новые Зарубежные сериалы и Русские сериалы 2013, 2014, 2015 годов. Оставайтесь с нами, качайте любимые фильмы, игры, сериалы, книги и музыку.