img image001 image001 image001 image001 image001 image001 image001 image001 image001 image001 image001 image001 image001 image001 image001

Planets Sun Sun Sun
Статистика раздачи
Автор: Снежана | Размер: 4.13 ГБ | Добавлен: 24 июл 2013
Раздают: 14    Качают: 9
Скачать торрент
Скачать торрент
Описание торрента

СообщениеДобавлено: 24 июл 2013 

#77

Информация о фильме
Оригинальное название: Дожить до рассвета
Год выхода: 1975
Жанр: Военный
Режиссер: Михаил Ершов, Виктор Соколов
В ролях: Александр Михайлов, Алексей Горячев, Светлана Орлова, Алексей Панькин, Николай Кузьмин, Павел Кашлаков, Александр Бондаренко, Владимир Емельянов
О фильме: 1941 год, декабрь. Враг на подступах к Москве. Здесь,на этом участке фронта, в 60-ти километрах от столицы, каждый боец должен сделать свой шаг к победе... И группа разведчиков лейтенанта Ивановского этот шаг сделала.



Страна: СССР
Студия: Ленфильм
Продолжительность: 01:13:55
Язык: Русский
Файл
Кодек: MPEG-2
Качество: DVD-5
Видео: PAL 4:3 (720x576) VBR
Звук: Русский (Dolby AC3, 2 ch)



Title: DOJIT
Size: 4.13 Gb ( 4 330 214 KBytes ) - DVD-5
Enabled regions: 1, 2, 3, 4, 5, 6, 7, 8

VTS_01 :
Play Length: 01:13:55
Video: PAL 4:3 (720x576) VBR
Audio:
Russian (Dolby AC3, 2 ch)

Menu Video:
PAL 4:3 (720x576) VBR
Menu Audio:
Not specified (Dolby AC3, 2 ch)
Menu Subtitles:
Not specified
Menu English Language Unit :
Root Menu


Общее
Полное имя : D:1АААDozit.do.rassvetaVIDEO_TSVTS_01_1.VOB
Формат : MPEG-PS
Размер файла : 954 Мбайт
Продолжительность : 17 м.
Режим общего битрейта : Переменный
Общий поток : 7810 Кбит/сек

Видео
Идентификатор : 224 (0xE0)
Формат : MPEG Video
Версия формата : Version 2
Профиль формата : Main@Main
Параметр BVOP формата : Да
Параметр матрицы формата : Выборочная
Параметр GOP формата : M=3, N=12
Продолжительность : 17 м.
Вид битрейта : Переменный
Битрейт : 7398 Кбит/сек
Максимальный битрейт : 7640 Кбит/сек
Ширина : 720 пикселей
Высота : 576 пикселей
Соотношение сторон : 4:3
Частота кадров : 25,000 кадров/сек
Стандарт вещания : PAL
Цветовое пространство : YUV
Субдискретизация насыщенности : 4:2:0
Битовая глубина : 8 бит
Тип развёртки : Чересстрочная
Порядок развёртки : Верхнее поле первое
Метод сжатия : С потерями
Бит/(Пиксели*Кадры) : 0.714
TimeCode_FirstFrame : 00:00:00:00
TimeCode_Source : Group of pictures header
Размер потока : 904 Мбайт (95%)
Основные цвета : BT.601 PAL
Характеристики трансфера : BT.470 System B, BT.470 System G
Коэффициенты матрицы : BT.601

Аудио
Идентификатор : 189 (0xBD)-128 (0x80)
Формат : AC-3
Формат/Информация : Audio Coding 3
Расширение режима : CM (complete main)
Параметр Endianness формата : Big
Режим смешивания : DVD-Video
Продолжительность : 17 м.
Вид битрейта : Постоянный
Битрейт : 256 Кбит/сек
Каналы : 2 канала
Расположение каналов : Front: L R
Частота : 48,0 КГц
Битовая глубина : 16 бит
Метод сжатия : С потерями
Задержка видео : -80 мс.
Размер потока : 31,3 Мбайт (3%)

Меню





   Похожие торренты   Торрент   Размер 
В этой теме нет новых непрочитанных сообщений. Дожить до рассвета (1975) DVDRip от Alekxandr48

271 | 27

1.37 ГБ

В этой теме нет новых непрочитанных сообщений. Дожить до рассвета / Somebody Help Me (2007) DVDRip l КПК от Киномагия

7 | 2

382.59 МБ

В этой теме нет новых непрочитанных сообщений. Василь Быков - Дожить до рассвета (2005) MP3

21 | 6

334.96 МБ

В этой теме нет новых непрочитанных сообщений. Дожить до рассвета / Somebody Help Me (2007) DVDRip от Киномагия

7 | 4

1.25 ГБ

В этой теме нет новых непрочитанных сообщений. 21 способ дожить до 100 лет (2007) MP3

197 | 10

107.97 МБ

В этой теме нет новых непрочитанных сообщений. Аэропорт 1975 / Airport 1975 (1974) DVDRip-AVC от FilmoRay & Sheikn | P

21 | 3

2.13 ГБ

В этой теме нет новых непрочитанных сообщений. Аэропорт 1975 / Airport 1975 (1974) BDRip 720p от Koenig

1 | 0

4.51 ГБ




Вы не можете начинать темы
Вы не можете отвечать на сообщения
Вы не можете редактировать свои сообщения
Вы не можете удалять свои сообщения
Вы не можете добавлять вложения

Перейти:  
Для Мосгорсуда, Роскомнадзора и рекламодателей: mosgorsud-torrent[собачка]yandex.ru
 Вход
ppkBB3cker v.2 © 2008-2014 @ PPK
[ Time : 0.047s | 15 Queries | GZIP : Off ]

cron