img image001 image001 image001 image001 image001 image001 image001 image001 image001 image001 image001 image001 image001 image001 image001

Planets Sun Sun Sun
Статистика раздачи
Автор: Снежана | Размер: 6.57 ГБ | Добавлен: 24 июл 2013
Раздают: 214    Качают: 20
Скачать торрент
Скачать торрент
Описание торрента

СообщениеДобавлено: 24 июл 2013 

#77

Оригинальное название: Небесный тихоход (Цветная версия)
Год выпуска: 1945
Жанр: Комедия, военный, ВОВ
Выпущено: СССР, Ленфильм
Режиссер: Семен Тимошенко
В ролях: Николай Крючков, Василий Меркурьев, Василий Нещипленко, Алла Парфаньяк, Людмила Глазова, Тамара Алешина, Фаина Раневская, Константин Скоробогатов, Анатолий Королькевич, Анатолий Алексеев, Манефа Соболевская, Владимир Таскин, Леонид Кострица, Яков Гудкин

О фильме: Три друга, лётчики-офицеры, поклялись не влюбляться до конца войны. Однако военная служба познакомила их с лётчицами женской эскадрильи. И друзья, один за другим, начали сдавать свои позиции. После тяжёлого ранения летчик Булочкин вынужден летать не на скоростном истребителе, а на «тихоходе» У-2. Привыкший к опасностям Булочкин с трудом привыкает к спокойной жизни в эскадрилье, где лётчики — девушки. Но вскоре становится ясно, что на войне важны и «тихоходы».

Качество: BDRip (1080p)
Видео: MPEG-4 AVC, 9088 Кбит/с, 1400x1080
Аудио: Русский (DTS, 6 ch, 1509 Кбит/с), (AC3, 6 ch, 448 Кбит/с)
Размер: 6.57 ГБ
Продолжительность: 01:23:28

Сравнение с исходником



Общее
Полное имя : E:VideoNebesny.tihohod.CvetRed.1945.x264.BDRip.1080pNebesny.tihohod.CvetRed.1945.Original.rus.ac3
Формат : AC-3
Формат/Информация : Audio Coding 3
Размер файла : 267 Мбайт
Продолжительность : 1 ч. 23 м.
Режим общего битрейта : Постоянный
Общий поток : 448 Кбит/сек

Аудио
Формат : AC-3
Формат/Информация : Audio Coding 3
Расширение режима : CM (complete main)
Параметр Endianness формата : Big
Продолжительность : 1 ч. 23 м.
Вид битрейта : Постоянный
Битрейт : 448 Кбит/сек
Каналы : 6 каналов
Расположение каналов : Front: L C R, Side: L R, LFE
Частота : 48,0 КГц
Битовая глубина : 16 бит
Метод сжатия : С потерями
Размер потока : 267 Мбайт (100%)

Общее
Уникальный идентификатор : 184317131113472761955251544618486197708 (0x8AAA302E5DDB1D79B13D0AA7A9B3EDCC)
Полное имя : E:VideoNebesny.tihohod.CvetRed.1945.x264.BDRip.1080pNebesny.tihohod.CvetRed.1945.x264.BDRip.1080p.mkv
Формат : Matroska
Версия формата : Version 4 / Version 2
Размер файла : 6,30 Гбайт
Продолжительность : 1 ч. 23 м.
Общий поток : 10,8 Мбит/сек
Название фильма : Небесный тихоход (Цветная версия) / 1945 / BDRip -- STarankov
Дата кодирования : UTC 2010-02-22 21:41:31
Программа кодирования : mkvmerge v5.9.0 ('On The Loose') built on Dec 9 2012 15:37:01
Библиотека кодирования : libebml v1.3.0 + libmatroska v1.4.0

Видео
Идентификатор : 1
Формат : AVC
Формат/Информация : Advanced Video Codec
Профиль формата : High@L4.1
Параметр CABAC формата : Да
Параметр ReFrames формата : 4 кадра
Идентификатор кодека : V_MPEG4/ISO/AVC
Продолжительность : 1 ч. 23 м.
Битрейт : 9088 Кбит/сек
Ширина : 1400 пикселей
Высота : 1080 пикселей
Соотношение сторон : 1,296
Режим частоты кадров : Постоянный
Частота кадров : 23,976 кадра/сек
Цветовое пространство : YUV
Субдискретизация насыщенности : 4:2:0
Битовая глубина : 8 бит
Тип развёртки : Прогрессивная
Бит/(Пиксели*Кадры) : 0.251
Размер потока : 5,30 Гбайт (84%)
Библиотека кодирования : x264 core 130 r2273 b3065e6
Настройки программы : cabac=1 / ref=4 / deblock=1:-1:-1 / analyse=0x3:0x113 / me=umh / subme=9 / psy=1 / psy_rd=1.00:0.15 / mixed_ref=1 / me_range=24 / chroma_me=1 / trellis=2 / 8x8dct=1 / cqm=0 / deadzone=21,11 / fast_pskip=1 / chroma_qp_offset=-3 / threads=6 / lookahead_threads=1 / sliced_threads=0 / nr=0 / decimate=1 / interlaced=0 / bluray_compat=0 / constrained_intra=0 / bframes=8 / b_pyramid=2 / b_adapt=2 / b_bias=0 / direct=1 / weightb=0 / open_gop=0 / weightp=2 / keyint=230 / keyint_min=23 / scenecut=40 / intra_refresh=0 / rc=crf / mbtree=0 / crf=20.0 / qcomp=0.60 / qpmin=0 / qpmax=69 / qpstep=4 / ip_ratio=1.40 / pb_ratio=1.30 / aq=1:1.00
Язык : Russian
Default : Да
Forced : Нет

Аудио
Идентификатор : 2
Формат : DTS
Формат/Информация : Digital Theater Systems
Режим : 16
Параметр Endianness формата : Big
Идентификатор кодека : A_DTS
Продолжительность : 1 ч. 23 м.
Вид битрейта : Постоянный
Битрейт : 1509 Кбит/сек
Каналы : 6 каналов
Расположение каналов : Front: L C R, Side: L R, LFE
Частота : 48,0 КГц
Битовая глубина : 24 бит
Метод сжатия : С потерями
Размер потока : 901 Мбайт (14%)
Заголовок : Оригинал
Язык : Russian
Default : Да
Forced : Нет

Меню
00:00:00.000 : :Chapter 01
00:09:30.403 : :Chapter 02
00:14:27.700 : :Chapter 03
00:20:11.376 : :Chapter 04
00:23:31.493 : :Chapter 05
00:27:16.009 : :Chapter 06
00:32:47.840 : :Chapter 07
00:39:36.499 : :Chapter 08
00:44:54.441 : :Chapter 09
00:51:14.237 : :Chapter 10
00:56:51.282 : :Chapter 11
01:01:51.958 : :Chapter 12
01:07:20.578 : :Chapter 13
01:16:33.880 : :Chapter 14
01:19:05.866 : :Chapter 15





   Похожие торренты   Торрент   Размер 
В этой теме нет новых непрочитанных сообщений. Небесный тихоход (1945) BDRip-AVC от MediaClub | Цветная версия

9 | 4

1.89 ГБ

В этой теме нет новых непрочитанных сообщений. Небесный тихоход (1945) BDRip-AVC от New-Team | Цветная версия

290 | 14

1.46 ГБ

В этой теме нет новых непрочитанных сообщений. Небесный тихоход (1945) BDRip от New-Team | Цветная версия

67 | 10

744.25 МБ

В этой теме нет новых непрочитанных сообщений. Небесный тихоход (1945) BDRip от HQCLUB | Цветная версия

140 | 13

1.45 ГБ

В этой теме нет новых непрочитанных сообщений. Небесный тихоход (1945) BDRip от New-Team | Цветная версия

255 | 33

1.46 ГБ

В этой теме нет новых непрочитанных сообщений. Небесный тихоход (1945) BDRip 720p от New-Team | Цветная версия

138 | 20

2.19 ГБ

В этой теме нет новых непрочитанных сообщений. Небесный тихоход (1945) BDRip 720p от MediaClub | Цветная версия

24 | 4

3.18 ГБ




Вы не можете начинать темы
Вы не можете отвечать на сообщения
Вы не можете редактировать свои сообщения
Вы не можете удалять свои сообщения
Вы не можете добавлять вложения

Перейти:  
Для Мосгорсуда, Роскомнадзора и рекламодателей: mosgorsud-torrent[собачка]yandex.ru
 Вход
ppkBB3cker v.2 © 2008-2014 @ PPK
[ Time : 0.548s | 16 Queries | GZIP : Off ]

Торрент трекер RUTOR.IN, Не можете зайти на rutor.org? Какой новый адрес рутор? Какое зеркало рутор? Не работает rutor.org и зеркала? Тогда наш торрент специально для вас. Rutor.in неофициальное зеркало rutor. В случае если у Вас заблокирован rutor или вдруг Вы не можете на него зайти, то Вы без труда сможете скачать бесплатно и без рекламы последние новинки кино, игр, сериалов и прочего у нас, на Rutor.in. Не нужно использовать прокси, чтобы зайти на рутор, достаточно воспользоваться нашим ресурсом. Все новые фильмы, игры, сериалы, книги и музыка за 2013 и 2014 годы через торрент бесплатно. Скачивайте фильмы в хорошем качестве, игры для пк, xbox, playstation без регистрации. У нас вы найдете новые Зарубежные сериалы и Русские сериалы 2013, 2014, 2015 годов. Оставайтесь с нами, качайте любимые фильмы, игры, сериалы, книги и музыку.
cron