img image001 image001 image001 image001 image001 image001 image001 image001 image001 image001 image001 image001 image001 image001 image001

Planets Sun Sun Sun
Статистика раздачи
Автор: Снежана | Размер: 1.46 ГБ | Добавлен: 24 июл 2013, 09:01
Раздают: 16    Качают: 5
Скачать торрент
Скачать торрент
Описание торрента

СообщениеДобавлено: 24 июл 2013, 09:01 

#77
Страна: СССР
Производство: Мосфильм
Жанр: приключения, военный
Год выпуска: 1966
Продолжительность: 01:19:03 + 01:26:16

Перевод: не требуется
Оригинальная аудиодорожка: русский
Cубтитры: нет

Режиссер: Дамир Вятич-Бережных

В ролях:
Вадим Захарченко, Юрий Мартынов, Михаил Глузский, Сергей Голованов, Изольда Извицкая, Николай Крючков, Лаврентий Масоха, Олег Мокшанцев, Алексей Эйбоженко, Роман Хомятов, Глеб Стриженов, Феликс Яворский, Виктор Коршунов, Олев Эскола, Николай Крюков, Елена Вольская, Дамир Вятич-Бережных, Юрий Киреев, Николай Погодин...

Описание:
О борьбе работников органов госбезопасности против иностранной разведки в предвоенные годы и в годы Великой Отечественной войны. В центре сюжета история трех друзей-разведчиков…





Исходник: 2хDVD5 R5
Тип релиза: DVDRip
Контейнер: AVI

Видео: 688x368 (1,870:1), 25 fps, XviD ~ 1131 kbps avg, 0.179 bit/pixel
Аудио: 48 kHz, Вщдин MP3 2.0, 128 kbps

Раздача от:
Общее
Полное имя : Po.tonkomu.l'du.1966.DVDRip-01_[Youtracker]_by_AVP Studio.avi
Формат : AVI
Формат/Информация : Audio Video Interleave
Размер файла : 712 Мбайт
Продолжительность : 1 ч. 18 м.
Общий поток : 1268 Кбит/сек
Программа кодирования : VirtualDubModRus 1.5.10.2 (build 2542/release)
Библиотека кодирования : VirtualDubMod build 2542/release

Видео
Идентификатор : 0
Формат : MPEG-4 Visual
Профиль формата : Advanced Simple@L5
Параметр BVOP формата : 1
Параметр QPel формата : Нет
Параметр GMC формата : Без точки перехода
Параметр матрицы формата : Выборочная
Идентификатор кодека : XVID
Идентификатор кодека/Подсказка : XviD
Продолжительность : 1 ч. 18 м.
Битрейт : 1131 Кбит/сек
Ширина : 688 пикселей
Высота : 368 пикселей
Соотношение сторон : 1,870
Частота кадров : 25,000 кадров/сек
Цветовое пространство : YUV
Субдискретизация насыщенности : 4:2:0
Битовая глубина : 8 бит
Тип развёртки : Прогрессивная
Метод сжатия : С потерями
Бит/(Пиксели*Кадры) : 0.179
Размер потока : 635 Мбайт (89%)
Библиотека кодирования : XviD 65

Аудио
Идентификатор : 1
Формат : MPEG Audio
Версия формата : Version 1
Профиль формата : Layer 3
Идентификатор кодека : 55
Идентификатор кодека/Подсказка : MP3
Продолжительность : 1 ч. 18 м.
Вид битрейта : Постоянный
Битрейт : 128 Кбит/сек
Каналы : 2 канала
Частота : 48,0 КГц
Метод сжатия : С потерями
Размер потока : 71,9 Мбайт (10%)
Выравнивание : Соединение по промежуткам
Продолжительность промежутка : 40 мс. (1,00 видеокадр)
Время предзагрузки промежутка : 504 мс.
Библиотека кодирования : L3.99r
Настройки программы : -m s -V 4 -q 2 -lowpass 17 -b 128





   Похожие торренты   Торрент   Размер 
В этой теме нет новых непрочитанных сообщений. По тонкому льду (1966) DVDRip-AVC от Youtracker

20 | 4

2.18 ГБ

В этой теме нет новых непрочитанных сообщений. По тонкому льду (1966) DVDRip от Youtracker

30 | 11

2.18 ГБ

В этой теме нет новых непрочитанных сообщений. Туннель (1966) DVDRip-AVC от Youtracker

6 | 2

743.51 МБ

В этой теме нет новых непрочитанных сообщений. Три толстяка (1966) DVDRip от Youtracker

70 | 11

744.2 МБ

В этой теме нет новых непрочитанных сообщений. Туннель (1966) DVDRip от Youtracker

6 | 6

742.93 МБ

В этой теме нет новых непрочитанных сообщений. Три толстяка (1966) DVDRip от Youtracker

16 | 11

1.45 ГБ

В этой теме нет новых непрочитанных сообщений. Три толстяка (1966) DVDRip-AVC от Youtracker

320 | 18

1.45 ГБ




Вы не можете начинать темы
Вы не можете отвечать на сообщения
Вы не можете редактировать свои сообщения
Вы не можете удалять свои сообщения
Вы не можете добавлять вложения

Перейти:  
Для Мосгорсуда, Роскомнадзора и рекламодателей: mosgorsud-torrent[собачка]yandex.ru
Настройки
ppkBB3cker v.2 © 2008-2014 @ PPK
[ Time : 0.017s | 15 Queries | GZIP : On ]
CGP [Extreme] output time : 0.00070s | 0 Queries | GZIP : On

Торрент трекер RUTOR.IN, Не можете зайти на rutor.org? Какой новый адрес рутор? Какое зеркало рутор? Не работает rutor.org и зеркала? Тогда наш торрент специально для вас. Rutor.in неофициальное зеркало rutor. В случае если у Вас заблокирован rutor или вдруг Вы не можете на него зайти, то Вы без труда сможете скачать бесплатно и без рекламы последние новинки кино, игр, сериалов и прочего у нас, на Rutor.in. Не нужно использовать прокси, чтобы зайти на рутор, достаточно воспользоваться нашим ресурсом. Все новые фильмы, игры, сериалы, книги и музыка за 2013 и 2014 годы через торрент бесплатно. Скачивайте фильмы в хорошем качестве, игры для пк, xbox, playstation без регистрации. У нас вы найдете новые Зарубежные сериалы и Русские сериалы 2013, 2014, 2015 годов. Оставайтесь с нами, качайте любимые фильмы, игры, сериалы, книги и музыку.