img image001 image001 image001 image001 image001 image001 image001 image001 image001 image001 image001 image001 image001 image001 image001

Planets Sun Sun Sun
Статистика раздачи
Автор: Снежана | Размер: 1.55 ГБ | Добавлен: 24 июл 2013
Раздают: 68    Качают: 9
Скачать торрент
Скачать торрент
Описание торрента

СообщениеДобавлено: 24 июл 2013 

#77

Информация о фильме
Название: Спорт, спорт, спорт
Год выхода: 1970
Жанр: Художественно-публицистический
Режиссер: Элем Климов
В ролях: Георгий Светлани, Лена Новожилова, Владимир Андреев, В.Ляхов, Валерий Брумель, Герман Климов, Никита Михалков, Игорь Класс, Борис Романов, Лариса Шепитько, Белла Ахмадулина, Евгений Матвеев, В.Утешев, Н.Дронова, А.Сошальская

О фильме:
Сценарий Герман Климов. Композитор Альфред Шнитке.

Действие фильма происходит на стадионах Москвы, Филадельфии, Стокгольма и Мехико, на стадионах будущего и далекого прошлого. Используя документальный материал реальных спортивных состязаний и монтируя его с развернутыми новеллами в духе пантомимы и балета, авторы фильма показывают историю развития спорта и его будущее, связь спорта с политикой, искусством и этикой.

Роль массажиста дяди Володи (Г. Светлани) озвучил Ролан Быков.

Исходник - лицензия, без реставрации.

Страна: СССР
Студия: Мосфильм
Продолжительность: 01:19:59
Перевод: не требуется

Файл
Кодек: h.264
Качество: DVDRip-AVC
Видео: 688x560 (4:3) @ 738x560 (анаморф), 25.000 fps, AVC, Progressive, ~2390 Kbps, 0.248 bits/pixel
Звук: Русский 48.0 KHz, AC3, 2 ch, 384 Kbps
Субтитры: нет

Общее
Уникальный идентификатор : 185829807352467055963393912965818596226 (0x8BCD84E0B8C8D349B76EF9B05495BB82)
Полное имя : D:FilmsSport_sport_sport.1970.DVDRip-AVC.mkv
Формат : Matroska
Версия формата : Version 4 / Version 2
Размер файла : 1,55 Гбайт
Продолжительность : 1 ч. 19 м.
Общий поток : 2777 Кбит/сек
Дата кодирования : UTC 2013-05-02 13:50:00
Программа кодирования : mkvmerge v6.2.0 ('Promised Land') built on Apr 28 2013 12:22:01
Библиотека кодирования : libebml v1.3.0 + libmatroska v1.4.0

Видео
Идентификатор : 1
Формат : AVC
Формат/Информация : Advanced Video Codec
Профиль формата : High@L4.1
Параметр CABAC формата : Да
Параметр ReFrames формата : 16 кадров
Идентификатор кодека : V_MPEG4/ISO/AVC
Продолжительность : 1 ч. 19 м.
Битрейт : 2390 Кбит/сек
Ширина : 688 пикселей
Высота : 560 пикселей
Соотношение сторон : 4:3
Соотношение сторон в оригинале : 4:3
Режим частоты кадров : Постоянный
Частота кадров : 25,000 кадров/сек
Цветовое пространство : YUV
Субдискретизация насыщенности : 4:2:0
Битовая глубина : 8 бит
Тип развёртки : Прогрессивная
Бит/(Пиксели*Кадры) : 0.248
Размер потока : 1,31 Гбайт (84%)
Библиотека кодирования : x264 core 130 r2273 b3065e6
Настройки программы : cabac=1 / ref=16 / deblock=1:0:0 / analyse=0x3:0x133 / me=umh / subme=10 / psy=1 / psy_rd=1.05:0.10 / mixed_ref=1 / me_range=32 / chroma_me=1 / trellis=2 / 8x8dct=1 / cqm=0 / deadzone=21,11 / fast_pskip=0 / chroma_qp_offset=-3 / threads=8 / lookahead_threads=1 / sliced_threads=0 / nr=0 / decimate=0 / interlaced=0 / bluray_compat=0 / constrained_intra=0 / bframes=7 / b_pyramid=2 / b_adapt=2 / b_bias=0 / direct=3 / weightb=1 / open_gop=0 / weightp=2 / keyint=250 / keyint_min=25 / scenecut=40 / intra_refresh=0 / rc_lookahead=60 / rc=2pass / mbtree=0 / bitrate=2390 / ratetol=1.0 / qcomp=0.60 / qpmin=0 / qpmax=60 / qpstep=4 / cplxblur=20.0 / qblur=0.5 / vbv_maxrate=50000 / vbv_bufsize=62500 / nal_hrd=none / ip_ratio=1.40 / pb_ratio=1.30 / aq=2:1.00
Default : Нет
Forced : Нет
Коэффициенты матрицы : BT.601

Аудио
Идентификатор : 2
Формат : AC-3
Формат/Информация : Audio Coding 3
Расширение режима : CM (complete main)
Параметр Endianness формата : Big
Идентификатор кодека : A_AC3
Продолжительность : 1 ч. 19 м.
Вид битрейта : Постоянный
Битрейт : 384 Кбит/сек
Каналы : 2 канала
Расположение каналов : Front: L R
Частота : 48,0 КГц
Битовая глубина : 16 бит
Метод сжатия : С потерями
Размер потока : 220 Мбайт (14%)
Язык : Russian
Default : Да
Forced : Нет

Меню
00:00:00.000 : en:Chapter 01
00:09:05.640 : en:Chapter 02
00:17:49.560 : en:Chapter 03
00:26:40.920 : en:Chapter 04
00:35:31.680 : en:Chapter 05
00:44:28.680 : en:Chapter 06
00:53:28.800 : en:Chapter 07
01:02:02.640 : en:Chapter 08
01:10:52.440 : en:Chapter 09


frame I:912 Avg QP:16.93 size: 42371
frame P:35783 Avg QP:20.01 size: 18970
frame B:83272 Avg QP:21.77 size: 8607



Релиз от: Temperest



   Похожие торренты   Торрент   Размер 
В этой теме нет новых непрочитанных сообщений. Спорт, спорт, спорт (1970) DVDRip от Киномагия

5 | 3

1.37 ГБ

В этой теме нет новых непрочитанных сообщений. XXII зимние Олимпийские игры. Конькобежный спорт. Женщины 1500 м [Спорт] [16.02] IPTV

44 | 62

1.63 ГБ

В этой теме нет новых непрочитанных сообщений. XXII Зимниe Олимпийскиe игры. Конькобежный спорт. Женщины. 500 метров [Спорт] [11.02] (2014) DVB

16 | 6

6.73 ГБ

В этой теме нет новых непрочитанных сообщений. XXII зимние Олимпийские игры. Конькобежный спорт. Мужчины 10 000 м [Спорт] [18.02] (2014) IPTV

35 | 25

2.16 ГБ

В этой теме нет новых непрочитанных сообщений. XXII Зимние Олимпийские игры. Санный спорт. Мужики. 1, 2, 3, 4 попытки [Спорт] [09.02] (2014) IPTV

75 | 10

5.57 ГБ

В этой теме нет новых непрочитанных сообщений. XXII Зимниe Олимпийскиe игры. Санный спорт. Женщины. 1,2,3,4 попытки [Спорт] [11.02] (2014) IPTV

6 | 4

2.82 ГБ

В этой теме нет новых непрочитанных сообщений. XXII Зимниe Олимпийскиe игры. Санный спорт. Женщины. [HD Спорт] [11.02] (2014) HDTV 1080i

3 | 2

14.25 ГБ




Вы не можете начинать темы
Вы не можете отвечать на сообщения
Вы не можете редактировать свои сообщения
Вы не можете удалять свои сообщения
Вы не можете добавлять вложения

Перейти:  
Для Мосгорсуда, Роскомнадзора и рекламодателей: mosgorsud-torrent[собачка]yandex.ru
 Вход
ppkBB3cker v.2 © 2008-2014 @ PPK
[ Time : 0.051s | 14 Queries | GZIP : Off ]
CGP output time : 0.056s | 5 Queries | GZIP : Off

Торрент трекер RUTOR.IN, Не можете зайти на rutor.org? Какой новый адрес рутор? Какое зеркало рутор? Не работает rutor.org и зеркала? Тогда наш торрент специально для вас. Rutor.in неофициальное зеркало rutor. В случае если у Вас заблокирован rutor или вдруг Вы не можете на него зайти, то Вы без труда сможете скачать бесплатно и без рекламы последние новинки кино, игр, сериалов и прочего у нас, на Rutor.in. Не нужно использовать прокси, чтобы зайти на рутор, достаточно воспользоваться нашим ресурсом. Все новые фильмы, игры, сериалы, книги и музыка за 2013 и 2014 годы через торрент бесплатно. Скачивайте фильмы в хорошем качестве, игры для пк, xbox, playstation без регистрации. У нас вы найдете новые Зарубежные сериалы и Русские сериалы 2013, 2014, 2015 годов. Оставайтесь с нами, качайте любимые фильмы, игры, сериалы, книги и музыку.