img image001 image001 image001 image001 image001 image001 image001 image001 image001 image001 image001 image001 image001 image001 image001

Planets Sun Sun Sun
Статистика раздачи
Автор: Снежана | Размер: 744.5 МБ | Добавлен: 24 июл 2013
Раздают: 315    Качают: 13
Скачать торрент
Скачать торрент
Описание торрента

СообщениеДобавлено: 24 июл 2013 

#77
Страна: СССР
Производство: Студия Горького
Жанр: военный
Год выпуска: 1983
Продолжительность: 01:21:41

Перевод: не требуется
Оригинальная аудиодорожка: русский
Cубтитры: нет

Режиссер:Георгий Николаенко

В ролях:
Л.Савельева, Н.Олялин, А.Збруев, Н.Ерёменко (мл.), А.Денисов, Т.Спивак, В.Баранов, Л.Дуров, В.Смирнов...

Описание:
1944 год. На одном из участков фронта советское командование готовит крупное наступление. Войска должны пройти через лесной массив, охраняемый фашистами. Для выяснений целей вражеских формирований в этот район направляется группа советских разведчиков, которую возглавляет капитан Надежда Мороз…





Исходник: DVD5 R5
Тип релиза: DVDRip
Контейнер: AVI

Видео: 688x416 (1,654:1), 25 fps, XviD ~ 1103 kbps avg, 0.154 bit/pixel
Аудио: 48 kHz, MP3 2.0, 128 kbps

Раздача от:
Общее
Полное имя : Shel.chetvertyy.god.voyny.1983.DVDRip-745_[Youtracker]_by_AVP Studio.avi
Формат : AVI
Формат/Информация : Audio Video Interleave
Размер файла : 745 Мбайт
Продолжительность : 1 ч. 23 м.
Общий поток : 1241 Кбит/сек
Программа кодирования : VirtualDubModRus 1.5.10.2 (build 2542/release)
Библиотека кодирования : VirtualDubMod build 2542/release

Видео
Идентификатор : 0
Формат : MPEG-4 Visual
Профиль формата : Advanced Simple@L5
Параметр BVOP формата : 1
Параметр QPel формата : Нет
Параметр GMC формата : Без точки перехода
Параметр матрицы формата : Выборочная
Идентификатор кодека : XVID
Идентификатор кодека/Подсказка : XviD
Продолжительность : 1 ч. 23 м.
Битрейт : 1103 Кбит/сек
Ширина : 688 пикселей
Высота : 416 пикселей
Соотношение сторон : 1,654
Частота кадров : 25,000 кадров/сек
Цветовое пространство : YUV
Субдискретизация насыщенности : 4:2:0
Битовая глубина : 8 бит
Тип развёртки : Прогрессивная
Метод сжатия : С потерями
Бит/(Пиксели*Кадры) : 0.154
Размер потока : 662 Мбайт (89%)
Библиотека кодирования : XviD 65

Аудио
Идентификатор : 1
Формат : MPEG Audio
Версия формата : Version 1
Профиль формата : Layer 3
Идентификатор кодека : 55
Идентификатор кодека/Подсказка : MP3
Продолжительность : 1 ч. 23 м.
Вид битрейта : Постоянный
Битрейт : 128 Кбит/сек
Каналы : 2 канала
Частота : 48,0 КГц
Метод сжатия : С потерями
Размер потока : 76,8 Мбайт (10%)
Выравнивание : Соединение по промежуткам
Продолжительность промежутка : 40 мс. (1,00 видеокадр)
Время предзагрузки промежутка : 504 мс.
Библиотека кодирования : L3.99r
Настройки программы : -m s -V 4 -q 2 -lowpass 17 -b 128





   Похожие торренты   Торрент   Размер 
В этой теме нет новых непрочитанных сообщений. Шел четвертый год войны... (1983) DVDRip-AVC от Youtracker

17 | 5

1.46 ГБ

В этой теме нет новых непрочитанных сообщений. Шел четвертый год войны... (1983) DVDRip от Youtracker

19 | 6

1.46 ГБ

В этой теме нет новых непрочитанных сообщений. Четвертый мужчина / De Vierde Man (1983) DVDRip

134 | 77

1.69 ГБ

В этой теме нет новых непрочитанных сообщений. Четвертый мужчина / De Vierde Man (1983) DVDRip

1 | 3

700.38 МБ

В этой теме нет новых непрочитанных сообщений. Войны Кандагавы / Kanda-gawa inran senso (1983) DVDRip | Sub

136 | 23

710.74 МБ

В этой теме нет новых непрочитанных сообщений. Звездные войны: Эпизод 6 - Возвращение Джедая / Star Wars: Episode VI - Return of the Jedi (1983) DVDRip от Elitcinema

7 | 4

2.05 ГБ

В этой теме нет новых непрочитанных сообщений. Ангелы войны [01-04 из 04] 2012 DVDRip от Youtracker | лицензия

51 | 32

2.91 ГБ




Вы не можете начинать темы
Вы не можете отвечать на сообщения
Вы не можете редактировать свои сообщения
Вы не можете удалять свои сообщения
Вы не можете добавлять вложения

Перейти:  
Для Мосгорсуда, Роскомнадзора и рекламодателей: mosgorsud-torrent[собачка]yandex.ru
 Вход
ppkBB3cker v.2 © 2008-2014 @ PPK
[ Time : 0.039s | 14 Queries | GZIP : On ]

Торрент трекер RUTOR.IN, Не можете зайти на rutor.org? Какой новый адрес рутор? Какое зеркало рутор? Не работает rutor.org и зеркала? Тогда наш торрент специально для вас. Rutor.in неофициальное зеркало rutor. В случае если у Вас заблокирован rutor или вдруг Вы не можете на него зайти, то Вы без труда сможете скачать бесплатно и без рекламы последние новинки кино, игр, сериалов и прочего у нас, на Rutor.in. Не нужно использовать прокси, чтобы зайти на рутор, достаточно воспользоваться нашим ресурсом. Все новые фильмы, игры, сериалы, книги и музыка за 2013 и 2014 годы через торрент бесплатно. Скачивайте фильмы в хорошем качестве, игры для пк, xbox, playstation без регистрации. У нас вы найдете новые Зарубежные сериалы и Русские сериалы 2013, 2014, 2015 годов. Оставайтесь с нами, качайте любимые фильмы, игры, сериалы, книги и музыку.