img image001 image001 image001 image001 image001 image001 image001 image001 image001 image001 image001 image001 image001 image001 image001

Planets Sun Sun Sun
Статистика раздачи
Автор: Снежана | Размер: 1.45 ГБ | Добавлен: 24 июл 2013
Раздают: 285    Качают: 18
Скачать торрент
Скачать торрент
Описание торрента

СообщениеДобавлено: 24 июл 2013 

#77


Страна: Россия
Год выпуска: 1997
Жанр: Драма
Продолжительность: 01:33:45
Перевод: Не требуется
Субтиры: нет

Режиссер: Павел Чухрай

В ролях: Владимир Машков, Екатерина Редникова, Миша Филипчук, Дима Чигарев, Юрий Беляев, Амалия Мордвинова, Лидия Савченко, Анатолий Кощеев, Аня Штукатурова, Эрвант Арзуманян, Наталья Позднякова, Ольга Пашкова, Людмила Селянская, Галина Петрова, Виктор Бунаков

Описание: Действие картины разворачивается в двух эпохах - в послевоенное и в наше время. Главный герой фильма - сначала ребенок, потом - взрослый человек, военный. В 1952 году шестилетний Саня и его мать Катерина едут в поезде. Их случайный попутчик, офицер Анатолий очаровывает и Катю и Саню. Катя и Анатолий решают жить вместе. Сильный и добродушный Толян почти заменяет безотцовщине Сане отца. Он учит мальчика стоять за себя, вести себя по-мужски - так, как сам понимает мужественность и в соответствии с теми правилами, по которым живет. Но правила эти - правила "зоны". И вскоре выясняется, что Толян - вовсе не демобилизовавшийся офицер, а профессиональный вор. Отныне в мальчике борются любовь и отвращение, вспышки ненависти и привязанность к этому безусловно обаятельному и совершенно аморальному человеку...

Качество: DVDRip
Формат: AVI
Видео кодек: XviD
Аудио кодек: AC3
Видео: 720x544 (1.32:1), 25 fps, XviD build 73 ~1763 kbps avg, 0.18 bit/pixel
Аудио: 48 kHz, AC3 Dolby Digital, 3/2 (L,C,R,l,r) + LFE ch, ~448.00 kbps avg

Раздача от:


D:VOR.1997.DVDRip [YTN] by dexter lex.avi
General
Complete name : D:VOR.1997.DVDRip [YTN] by dexter lex.avi
Format : AVI
Format/Info : Audio Video Interleave
File size : 1.45 GiB
Duration : 1h 33mn
Overall bit rate : 2 221 Kbps
Writing application : VirtualDubMod 1.5.10.3 | www.virtualdub-fr.org || (build 2550/release)
Writing library : VirtualDubMod build 2550/release
Video #0
ID : 0
Format : MPEG-4 Visual
Format profile : Advanced Simple@L5
Format settings, BVOP : 1
Format settings, QPel : No
Format settings, GMC : No warppoints
Format settings, Matrix : Custom
Codec ID : XVID
Codec ID/Hint : XviD
Duration : 1h 33mn
Bit rate : 1 763 Kbps
Width : 720 pixels
Height : 544 pixels
Display aspect ratio : 1.32:1
Frame rate : 25.000 fps
Color space : YUV
Chroma subsampling : 4:2:0
Bit depth : 8 bits
Scan type : Progressive
Compression mode : Lossy
Bits/(Pixel*Frame) : 0.180
Stream size : 1.15 GiB (79%)
Writing library : XviD 73
Audio #1
ID : 1
Format : AC-3
Format/Info : Audio Coding 3
Mode extension : CM (complete main)
Format settings, Endianness : Big
Codec ID : 2000
Duration : 1h 33mn
Bit rate mode : Constant
Bit rate : 448 Kbps
Channel(s) : 6 channels
Channel positions : Front: L C R, Side: L R, LFE
Sampling rate : 48.0 KHz
Bit depth : 16 bits
Compression mode : Lossy
Stream size : 300 MiB (20%)
Alignment : Split accross interleaves
Interleave, duration : 40 ms (1.00 video frame)
Interleave, preload duration : 500 ms




   Похожие торренты   Торрент   Размер 
В этой теме нет новых непрочитанных сообщений. ХХL / XXL (1997) DVDRip от Youtracker | P2

0 | 2

1.46 ГБ

В этой теме нет новых непрочитанных сообщений. ХХL / XXL (1997) DVDRip от Youtracker | P2

3 | 2

745.12 МБ

В этой теме нет новых непрочитанных сообщений. ХХL / XXL (1997) DVDRip-AVC от Youtracker | P2

7 | 2

1.46 ГБ

В этой теме нет новых непрочитанных сообщений. Кот в сапогах (1997) DVDRip от Youtracker

19 | 3

222.74 МБ

В этой теме нет новых непрочитанных сообщений. Кот в сапогах (1997) DVDRip-AVC от Youtracker

9 | 2

225.96 МБ

В этой теме нет новых непрочитанных сообщений. Ребекка / Rebecca (1997) DVDRip от Youtracker | P

37 | 4

2.18 ГБ

В этой теме нет новых непрочитанных сообщений. Взрыв / Blast (1997) DVDRip-AVC от Youtracker | P

2 | 2

1.46 ГБ




Вы не можете начинать темы
Вы не можете отвечать на сообщения
Вы не можете редактировать свои сообщения
Вы не можете удалять свои сообщения
Вы не можете добавлять вложения

Перейти:  
Для Мосгорсуда, Роскомнадзора и рекламодателей: mosgorsud-torrent[собачка]yandex.ru
 Вход
ppkBB3cker v.2 © 2008-2014 @ PPK
[ Time : 0.032s | 15 Queries | GZIP : Off ]

cron