img image001 image001 image001 image001 image001 image001 image001 image001 image001 image001 image001 image001 image001 image001 image001

Planets Sun Sun Sun
Статистика раздачи
Автор: Снежана | Размер: 26.7 ГБ | Добавлен: 24 июл 2013
Раздают: 0    Качают: 6
Скачать торрент
Скачать торрент
Описание торрента

СообщениеДобавлено: 24 июл 2013 

#77

Информация о фильме
Название: Игла Remix
Год выхода: 2010
Жанр: фэнтези, драма
Режиссер: Рашид Нугманов
В ролях: Виктор Цой, Александр Баширов, Петр Мамонов, Марина Смирнова, Геннадий Люй, Архимед Искаков, Георгий Гурьянов, Дмитрий Мишенин

О фильме:
Герой Цоя, Моро, возвращается в родную Алма-Ату за денежным долгом мошенника Спартака и останавливается у своей подруги, с которой давно расстался. Старая любовь вернулась, но Дина удивляет его своим странным поведением и подозрительными знакомыми. Оказывается, она стала наркоманкой, и ее квартира превратилась в притон. Моро увозит ее к Аральскому морю, изолирует от окружающего мира и помогает избавиться от наркотической зависимости. Дина поправляется, но по возвращении в город поставщик наркотиков, хирург Артур, организует охоту за непокорными. Стоящая за ним преступная группировка принимает решение вновь посадить Дину на иглу и убить Моро.

Официальный сайт

Страна: Россия
Студия: ТИТАН
Продолжительность: 01:26:26
Перевод: Не требуется

Файл
Кодек: MKV
Качество: Blu-Ray Remux
Видео: MPEG-2, 44,2Mбит/с, 1920х1080, 24.000 кадр/с
Звук: Русский (DTS, 6 ch, 755 Кбит/c)
Семпл

Общее
Уникальный идентификатор : 168348648403719580577546155723716462494 (0x7EA6C532C2870C1E037BA147C20E879E)
Полное имя : D:Фильмы и сериалыIgla.Remix.2010.D.BD-Remux.mkv
Формат : Matroska
Версия формата : Version 2
Размер файла : 26,7 Гбайт
Продолжительность : 1 ч. 26 м.
Режим общего битрейта : Переменный
Общий поток : 44,2 Мбит/сек
Программа кодирования : Lavf51.12.1
Библиотека кодирования : Lavf51.12.1

Видео
Идентификатор : 1
Формат : AVC
Формат/Информация : Advanced Video Codec
Профиль формата : Baseline@L5.0
Параметр CABAC формата : Нет
Параметр ReFrames формата : 1 кадр
Параметр GOP формата : M=1, N=12
Идентификатор кодека : V_MPEG4/ISO/AVC
Продолжительность : 1 ч. 26 м.
Вид битрейта : Переменный
Битрейт : 43,0 Мбит/сек
Максимальный битрейт : 67,5 Мбит/сек
Ширина : 1920 пикселей
Высота : 1080 пикселей
Соотношение сторон : 16:9
Режим частоты кадров : Постоянный
Частота кадров : 24,000 кадра/сек
Цветовое пространство : YUV
Субдискретизация насыщенности : 4:2:0
Битовая глубина : 8 бит
Тип развёртки : Прогрессивная
Бит/(Пиксели*Кадры) : 0.865
Размер потока : 26,0 Гбайт (97%)
Язык : Russian
Default : Да
Forced : Нет

Идентификатор : 2
Формат : DTS
Формат/Информация : Digital Theater Systems
Режим : 16
Параметр Endianness формата : Big
Идентификатор кодека : A_DTS
Продолжительность : 1 ч. 26 м.
Вид битрейта : Постоянный
Битрейт : 755 Кбит/сек
Каналы : 6 каналов
Расположение каналов : Front: L C R, Side: L R, LFE
Частота : 48,0 КГц
Битовая глубина : 24 бит
Метод сжатия : С потерями
Размер потока : 542 Мбайт (3%)
Язык : Russian
Default : Да
Forced : Нет
Меню
00:00:00.000 : en:Chapter 01
00:00:00.333 : en:Chapter 02
00:01:39.166 : en:Chapter 03
00:16:14.416 : en:Chapter 04
00:29:49.291 : en:Chapter 05
00:41:49.750 : en:Chapter 06
00:54:19.625 : en:Chapter 07
01:07:26.458 : en:Chapter 08
01:19:31.166 : en:Chapter 09
01:30:32.750 : en:Chapter 10





   Похожие торренты   Торрент   Размер 
В этой теме нет новых непрочитанных сообщений. Игла Remix (2010) DVDRip

46 | 5

1.37 ГБ

В этой теме нет новых непрочитанных сообщений. Игла Remix (2010) SATRip - КинозалSAT

0 | 2

1.37 ГБ

В этой теме нет новых непрочитанных сообщений. Игла Remix (2010) BDRip 720p

17 | 4

5.51 ГБ

В этой теме нет новых непрочитанных сообщений. Сборник - Игла Remix OST (2010) FLAC

0 | 2

459.16 МБ

В этой теме нет новых непрочитанных сообщений. OST - Игла. Remix [Original Soundtrack] [Кино, Игорь Вдовин] (2010) FLAC

78 | 3

574.52 МБ

В этой теме нет новых непрочитанных сообщений. Игла / Needle (2010) BDRip 720p

1 | 2

3.55 ГБ

В этой теме нет новых непрочитанных сообщений. Игла / Needle (2010) HDRip | Лицензия

3 | 2

672.87 МБ




Вы не можете начинать темы
Вы не можете отвечать на сообщения
Вы не можете редактировать свои сообщения
Вы не можете удалять свои сообщения
Вы не можете добавлять вложения

Перейти:  
Для Мосгорсуда, Роскомнадзора и рекламодателей: mosgorsud-torrent[собачка]yandex.ru
 Вход
ppkBB3cker v.2 © 2008-2014 @ PPK
[ Time : 0.039s | 14 Queries | GZIP : Off ]

Торрент трекер RUTOR.IN, Не можете зайти на rutor.org? Какой новый адрес рутор? Какое зеркало рутор? Не работает rutor.org и зеркала? Тогда наш торрент специально для вас. Rutor.in неофициальное зеркало rutor. В случае если у Вас заблокирован rutor или вдруг Вы не можете на него зайти, то Вы без труда сможете скачать бесплатно и без рекламы последние новинки кино, игр, сериалов и прочего у нас, на Rutor.in. Не нужно использовать прокси, чтобы зайти на рутор, достаточно воспользоваться нашим ресурсом. Все новые фильмы, игры, сериалы, книги и музыка за 2013 и 2014 годы через торрент бесплатно. Скачивайте фильмы в хорошем качестве, игры для пк, xbox, playstation без регистрации. У нас вы найдете новые Зарубежные сериалы и Русские сериалы 2013, 2014, 2015 годов. Оставайтесь с нами, качайте любимые фильмы, игры, сериалы, книги и музыку.