img image001 image001 image001 image001 image001 image001 image001 image001 image001 image001 image001 image001 image001 image001 image001

Planets Sun Sun Sun
Статистика раздачи
Автор: Снежана | Размер: 743.9 МБ | Добавлен: 24 июл 2013
Раздают: 5    Качают: 8
Скачать торрент
Скачать торрент
Описание торрента

СообщениеДобавлено: 24 июл 2013 

#77
Страна: СССР
Производство: Ленфильм
Жанр: мелодрама, комедия, военный
Год выпуска: 1967
Продолжительность: 01:20:05

Перевод: не требуется
Оригинальная аудиодорожка: русский
Cубтитры: нет

Режиссер: Владимир Мотыль

В ролях:
Олег Даль, Галина Фигловская, Михаил Кокшенов, Павел Морозенко, Георгий Штиль, Марк Бернес, Адольф Ильин, Б. Шнейдер, Г. Игнатова, Владимир Ильин, Любовь Малиновская, Николай Мартон, Саша Кавалеров, Булат Окуджава, И .Михайлов, В. Мусатов...

Описание:
Солдат Женя Колышкин — хрупкий интеллигент с Арбата — сплошное недоразумение в военных буднях. Отправившись в предновогоднюю ночь за посылкой, он натыкается на немецкий блиндаж. Ему удается спастить, но гауптвахта неизбежна.
Незавидную участь Жени скрашивает Женечка — связистка полка катюш. Пройдет время и они встретятся в громадном пустом доме в освобожденном городе, где сыграют в прятки… Одна из самых нежных картин о войне…





Исходник: DVD5 R5
Тип релиза: DVDRip
Контейнер: AVI

Видео: 640x480 (4:3), 25 fps, XviD ~ 1161 kbps avg, 0.151 bit/pixel
Аудио: 48 kHz, MP3 2.0, 128 kbps

Раздача от:
Общее
Полное имя : Zhenya,Zhenechka.i.Katyusha.1967.DVDRip-745_[Youtracker]_by_AVP Studio.avi
Формат : AVI
Формат/Информация : Audio Video Interleave
Размер файла : 744 Мбайт
Продолжительность : 1 ч. 20 м.
Общий поток : 1299 Кбит/сек
Программа кодирования : VirtualDubModRus 1.5.10.2 (build 2542/release)
Библиотека кодирования : VirtualDubMod build 2542/release

Видео
Идентификатор : 0
Формат : MPEG-4 Visual
Профиль формата : Advanced Simple@L5
Параметр BVOP формата : 1
Параметр QPel формата : Нет
Параметр GMC формата : Без точки перехода
Параметр матрицы формата : Выборочная
Идентификатор кодека : XVID
Идентификатор кодека/Подсказка : XviD
Продолжительность : 1 ч. 20 м.
Битрейт : 1161 Кбит/сек
Ширина : 640 пикселей
Высота : 480 пикселей
Соотношение сторон : 4:3
Частота кадров : 25,000 кадров/сек
Цветовое пространство : YUV
Субдискретизация насыщенности : 4:2:0
Битовая глубина : 8 бит
Тип развёртки : Прогрессивная
Метод сжатия : С потерями
Бит/(Пиксели*Кадры) : 0.151
Размер потока : 665 Мбайт (89%)
Библиотека кодирования : XviD 65

Аудио
Идентификатор : 1
Формат : MPEG Audio
Версия формата : Version 1
Профиль формата : Layer 3
Идентификатор кодека : 55
Идентификатор кодека/Подсказка : MP3
Продолжительность : 1 ч. 20 м.
Вид битрейта : Постоянный
Битрейт : 128 Кбит/сек
Каналы : 2 канала
Частота : 48,0 КГц
Метод сжатия : С потерями
Размер потока : 73,3 Мбайт (10%)
Выравнивание : Соединение по промежуткам
Продолжительность промежутка : 40 мс. (1,00 видеокадр)
Время предзагрузки промежутка : 504 мс.
Библиотека кодирования : L3.99r
Настройки программы : -m s -V 4 -q 2 -lowpass 17 -b 128





   Похожие торренты   Торрент   Размер 
В этой теме нет новых непрочитанных сообщений. Женя, Женечка и "Катюша" (1967) DVDRip от Youtracker

60 | 3

1.45 ГБ

В этой теме нет новых непрочитанных сообщений. Женя, Женечка и "Катюша" (1967) DVDRip-AVC от Youtracker

15 | 2

1.05 ГБ

В этой теме нет новых непрочитанных сообщений. Женя, Женечка и «Катюша» (1967) DVDRip от Scarabey

230 | 17

1.44 ГБ

В этой теме нет новых непрочитанных сообщений. Женя, Женечка и «Катюша» (1967) DVD5 by гаврила

16 | 15

4.23 ГБ

В этой теме нет новых непрочитанных сообщений. Женя, Женечка и "Катюша" (1967) DVDRip | Реставрация

60 | 3

1.45 ГБ

В этой теме нет новых непрочитанных сообщений. Женя, Женечка и "катюша" (1967) DVDRip

1 | 4

697.19 МБ

В этой теме нет новых непрочитанных сообщений. Взорванный ад (1967) DVDRip от Youtracker

17 | 2

747.57 МБ




Вы не можете начинать темы
Вы не можете отвечать на сообщения
Вы не можете редактировать свои сообщения
Вы не можете удалять свои сообщения
Вы не можете добавлять вложения

Перейти:  
Для Мосгорсуда, Роскомнадзора и рекламодателей: mosgorsud-torrent[собачка]yandex.ru
 Вход
ppkBB3cker v.2 © 2008-2014 @ PPK
[ Time : 0.560s | 15 Queries | GZIP : Off ]

Торрент трекер RUTOR.IN, Не можете зайти на rutor.org? Какой новый адрес рутор? Какое зеркало рутор? Не работает rutor.org и зеркала? Тогда наш торрент специально для вас. Rutor.in неофициальное зеркало rutor. В случае если у Вас заблокирован rutor или вдруг Вы не можете на него зайти, то Вы без труда сможете скачать бесплатно и без рекламы последние новинки кино, игр, сериалов и прочего у нас, на Rutor.in. Не нужно использовать прокси, чтобы зайти на рутор, достаточно воспользоваться нашим ресурсом. Все новые фильмы, игры, сериалы, книги и музыка за 2013 и 2014 годы через торрент бесплатно. Скачивайте фильмы в хорошем качестве, игры для пк, xbox, playstation без регистрации. У нас вы найдете новые Зарубежные сериалы и Русские сериалы 2013, 2014, 2015 годов. Оставайтесь с нами, качайте любимые фильмы, игры, сериалы, книги и музыку.
cron