img image001 image001 image001 image001 image001 image001 image001 image001 image001 image001 image001 image001 image001 image001 image001

Planets Sun Sun Sun
Статистика раздачи
Автор: Снежана | Размер: 5.51 ГБ | Добавлен: 24 июл 2013
Раздают: 17    Качают: 4
Скачать торрент
Скачать торрент
Описание торрента

СообщениеДобавлено: 24 июл 2013 

#77

Информация о фильме
Название: Игла Remix
Год выхода: 2010
Жанр: фэнтези, драма
Режиссер: Рашид Нугманов
В ролях: Виктор Цой, Александр Баширов, Петр Мамонов, Марина Смирнова, Геннадий Люй, Архимед Искаков, Георгий Гурьянов, Дмитрий Мишенин

О фильме:
Герой Цоя, Моро, возвращается в родную Алма-Ату за денежным долгом мошенника Спартака и останавливается у своей подруги, с которой давно расстался. Старая любовь вернулась, но Дина удивляет его своим странным поведением и подозрительными знакомыми. Оказывается, она стала наркоманкой, и ее квартира превратилась в притон. Моро увозит ее к Аральскому морю, изолирует от окружающего мира и помогает избавиться от наркотической зависимости. Дина поправляется, но по возвращении в город поставщик наркотиков, хирург Артур, организует охоту за непокорными. Стоящая за ним преступная группировка принимает решение вновь посадить Дину на иглу и убить Моро.

Официальный сайт

Страна: Россия
Студия: ТИТАН
Продолжительность: 01:26:26
Перевод: Не требуется

Файл
Кодек: MKV
Качество: BDRip 720p [Blu-Ray Remux]
Видео: x264, 8814 Кбит/сек, 1280х720, 23.976 кадр/с
Звук: Русский (AC3, 2 ch, 128 Кбит/c)
Семпл

Общее
Уникальный идентификатор : 168348648403719580577546155723716462494 (0x7EA6C532C2870C1E037BA147C20E879E)
Полное имя : Igla.Remix.2010.D.BDRip 720p.mkv
Формат : Matroska
Версия формата : Version 2
Размер файла : 5,51 Гбайт
Продолжительность : 1 ч. 26 м.
Режим общего битрейта : Переменный
Общий поток : 9123 Кбит/сек
Программа кодирования : Lavf51.12.1
Библиотека кодирования : Lavf51.12.1

Видео
Идентификатор : 1
Формат : AVC
Формат/Информация : Advanced Video Codec
Профиль формата : Baseline@L3.1
Параметр CABAC формата : Нет
Параметр ReFrames формата : 1 кадр
Параметр GOP формата : M=1, N=12
Идентификатор кодека : V_MPEG4/ISO/AVC
Продолжительность : 1 ч. 26 м.
Вид битрейта : Переменный
Битрейт : 8814 Кбит/сек
Максимальный битрейт : 13,5 Мбит/сек
Ширина : 1280 пикселей
Высота : 720 пикселей
Соотношение сторон : 16:9
Частота кадров : 24,000 кадра/сек
Цветовое пространство : YUV
Субдискретизация насыщенности : 4:2:0
Битовая глубина : 8 бит
Тип развёртки : Прогрессивная
Бит/(Пиксели*Кадры) : 0.398
Размер потока : 5,32 Гбайт (97%)
Язык : English / Russian

Аудио
Идентификатор : 2
Формат : AC-3
Формат/Информация : Audio Coding 3
Расширение режима : CM (complete main)
Идентификатор кодека : A_AC3
Продолжительность : 1 ч. 26 м.
Вид битрейта : Постоянный
Битрейт : 128 Кбит/сек
Каналы : 2 канала
Расположение каналов : Front: L R
Частота : 44,1 КГц
Битовая глубина : 16 бит
Метод сжатия : С потерями
Размер потока : 79,1 Мбайт (1%)
Язык : English / Russian






   Похожие торренты   Торрент   Размер 
В этой теме нет новых непрочитанных сообщений. Игла Remix (2010) DVDRip

46 | 5

1.37 ГБ

В этой теме нет новых непрочитанных сообщений. Игла Remix (2010) Blu-Ray Remux

0 | 6

26.7 ГБ

В этой теме нет новых непрочитанных сообщений. Игла Remix (2010) SATRip - КинозалSAT

0 | 2

1.37 ГБ

В этой теме нет новых непрочитанных сообщений. Сборник - Игла Remix OST (2010) FLAC

0 | 2

459.16 МБ

В этой теме нет новых непрочитанных сообщений. OST - Игла. Remix [Original Soundtrack] [Кино, Игорь Вдовин] (2010) FLAC

78 | 3

574.52 МБ

В этой теме нет новых непрочитанных сообщений. Игла / Needle (2010) BDRip 720p

1 | 2

3.55 ГБ

В этой теме нет новых непрочитанных сообщений. Игла / Needle (2010) BDRip-AVC от FireBit

2 | 2

2.29 ГБ




Вы не можете начинать темы
Вы не можете отвечать на сообщения
Вы не можете редактировать свои сообщения
Вы не можете удалять свои сообщения
Вы не можете добавлять вложения

Перейти:  
Для Мосгорсуда, Роскомнадзора и рекламодателей: mosgorsud-torrent[собачка]yandex.ru
 Вход
ppkBB3cker v.2 © 2008-2014 @ PPK
[ Time : 0.033s | 14 Queries | GZIP : On ]

Торрент трекер RUTOR.IN, Не можете зайти на rutor.org? Какой новый адрес рутор? Какое зеркало рутор? Не работает rutor.org и зеркала? Тогда наш торрент специально для вас. Rutor.in неофициальное зеркало rutor. В случае если у Вас заблокирован rutor или вдруг Вы не можете на него зайти, то Вы без труда сможете скачать бесплатно и без рекламы последние новинки кино, игр, сериалов и прочего у нас, на Rutor.in. Не нужно использовать прокси, чтобы зайти на рутор, достаточно воспользоваться нашим ресурсом. Все новые фильмы, игры, сериалы, книги и музыка за 2013 и 2014 годы через торрент бесплатно. Скачивайте фильмы в хорошем качестве, игры для пк, xbox, playstation без регистрации. У нас вы найдете новые Зарубежные сериалы и Русские сериалы 2013, 2014, 2015 годов. Оставайтесь с нами, качайте любимые фильмы, игры, сериалы, книги и музыку.