img image001 image001 image001 image001 image001 image001 image001 image001 image001 image001 image001 image001 image001 image001 image001

Planets Sun Sun Sun
Статистика раздачи
Автор: Снежана | Размер: 1.46 ГБ | Добавлен: 24 июл 2013
Раздают: 12    Качают: 4
Скачать торрент
Скачать торрент
Описание торрента

СообщениеДобавлено: 24 июл 2013 

#77

Информация о фильме
Название: Жених по объявлению
Год выхода: 2012
Жанр: Мелодрама
Режиссер: Владимир Чубриков
В ролях: Анастасия Заворотнюк, Сергей Астахов, Владимир Стержаков, Сергей Легостаев, Валерий Иваков

О фильме:
Картина о том, как человек поехал в Сибирь за одним счастьем, а нашел совсем другое… Поехал за деньгами, а получил любовь.


Страна: Россия
Продолжительность: 01:39:05
Перевод: Не требуется

Файл
Кодек: AVC
Качество: HDTVRip-AVC
Видео: 1024x576 (16:9), 1936 kbps, 25 fps, 0,131 Bits/(Pixel*Frame)
Звук: AC3, 48 kHz, 192 kbps, 2 ch
Субтитры: Отсутствуют

Семпл

Автор рипа: _Bathory_
General
Unique ID : 239536726923017834302991410267602648157 (0xB4351873BF29354CBD66A38321597C5D)
Complete name : H:Night_FlyerVIDEO_TSzhenih.po.obyavleniju.hdtvrip.avc.mkv
Format : Matroska
Format version : Version 2
File size : 1.46 GiB
Duration : 1h 38mn
Overall bit rate : 2 130 Kbps
Encoded date : UTC 2013-05-06 04:46:22
Writing application : mkvmerge v6.1.0 ('Old Devil') built on Mar 2 2013 14:32:37
Writing library : libebml v1.3.0 + libmatroska v1.4.0

Video
ID : 1
Format : AVC
Format/Info : Advanced Video Codec
Format profile : High@L4.1
Format settings, CABAC : Yes
Format settings, ReFrames : 14 frames
Codec ID : V_MPEG4/ISO/AVC
Duration : 1h 38mn
Bit rate : 1 936 Kbps
Width : 1 024 pixels
Height : 576 pixels
Display aspect ratio : 16:9
Frame rate mode : Constant
Frame rate : 25.000 fps
Color space : YUV
Chroma subsampling : 4:2:0
Bit depth : 8 bits
Scan type : Progressive
Bits/(Pixel*Frame) : 0.131
Stream size : 1.30 GiB (89%)
Writing library : x264 core 130 r2273 b3065e6
Encoding settings : cabac=1 / ref=14 / deblock=1:-1:-1 / analyse=0x3:0x133 / me=umh / subme=10 / psy=1 / psy_rd=1.00:0.00 / mixed_ref=1 / me_range=24 / chroma_me=1 / trellis=2 / 8x8dct=1 / cqm=0 / deadzone=21,11 / fast_pskip=1 / chroma_qp_offset=-2 / threads=6 / lookahead_threads=1 / sliced_threads=0 / nr=10 / decimate=1 / interlaced=0 / bluray_compat=0 / constrained_intra=0 / bframes=8 / b_pyramid=2 / b_adapt=2 / b_bias=0 / direct=3 / weightb=1 / open_gop=0 / weightp=2 / keyint=250 / keyint_min=25 / scenecut=40 / intra_refresh=0 / rc_lookahead=60 / rc=2pass / mbtree=1 / bitrate=1936 / ratetol=1.0 / qcomp=0.60 / qpmin=10 / qpmax=51 / qpstep=4 / cplxblur=20.0 / qblur=0.5 / vbv_maxrate=62500 / vbv_bufsize=78125 / nal_hrd=none / ip_ratio=1.40 / aq=1:1.00
Default : Yes
Forced : No

Audio
ID : 2
Format : AC-3
Format/Info : Audio Coding 3
Mode extension : CM (complete main)
Format settings, Endianness : Big
Codec ID : A_AC3
Duration : 1h 38mn
Bit rate mode : Constant
Bit rate : 192 Kbps
Channel(s) : 2 channels
Channel positions : Front: L R
Sampling rate : 48.0 KHz
Bit depth : 16 bits
Compression mode : Lossy
Stream size : 135 MiB (9%)
Default : Yes
Forced : No




   Похожие торренты   Торрент   Размер 
В этой теме нет новых непрочитанных сообщений. Жених по объявлению (2012) HDTVRip от Files-x

31 | 4

1.37 ГБ

В этой теме нет новых непрочитанных сообщений. Жених по объявлению (2012) IPTVRip от Files-x

75 | 9

1.36 ГБ

В этой теме нет новых непрочитанных сообщений. Жених по объявлению (2012) HDTV 1080i

4 | 2

5.8 ГБ

В этой теме нет новых непрочитанных сообщений. Иноземный жених (Приезжий жених) / Kelgindi Kuyov (2005) WEBRip

25 | 7

880.34 МБ

В этой теме нет новых непрочитанных сообщений. Пропавший жених [01-02 из 02] (2014) HDTVRip от Files-x

691 | 71

2.73 ГБ

В этой теме нет новых непрочитанных сообщений. Пропавший жених [01 из 02] (2014) HDTVRip 720p от MediaClub

153 | 27

7.38 ГБ

В этой теме нет новых непрочитанных сообщений. Пропавший жених [01 из 02] (2014) HDTVRip 720p от MediaClub

26 | 4

3.69 ГБ




Вы не можете начинать темы
Вы не можете отвечать на сообщения
Вы не можете редактировать свои сообщения
Вы не можете удалять свои сообщения
Вы не можете добавлять вложения

Перейти:  
Для Мосгорсуда, Роскомнадзора и рекламодателей: mosgorsud-torrent[собачка]yandex.ru
 Вход
ppkBB3cker v.2 © 2008-2014 @ PPK
[ Time : 0.599s | 14 Queries | GZIP : Off ]

Торрент трекер RUTOR.IN, Не можете зайти на rutor.org? Какой новый адрес рутор? Какое зеркало рутор? Не работает rutor.org и зеркала? Тогда наш торрент специально для вас. Rutor.in неофициальное зеркало rutor. В случае если у Вас заблокирован rutor или вдруг Вы не можете на него зайти, то Вы без труда сможете скачать бесплатно и без рекламы последние новинки кино, игр, сериалов и прочего у нас, на Rutor.in. Не нужно использовать прокси, чтобы зайти на рутор, достаточно воспользоваться нашим ресурсом. Все новые фильмы, игры, сериалы, книги и музыка за 2013 и 2014 годы через торрент бесплатно. Скачивайте фильмы в хорошем качестве, игры для пк, xbox, playstation без регистрации. У нас вы найдете новые Зарубежные сериалы и Русские сериалы 2013, 2014, 2015 годов. Оставайтесь с нами, качайте любимые фильмы, игры, сериалы, книги и музыку.