img image001 image001 image001 image001 image001 image001 image001 image001 image001 image001 image001 image001 image001 image001 image001

Planets Sun Sun Sun
Статистика раздачи
Автор: Снежана | Размер: 1.45 ГБ | Добавлен: 24 июл 2013
Раздают: 362    Качают: 12
Скачать торрент
Скачать торрент
Описание торрента

СообщениеДобавлено: 24 июл 2013 

#77

Страна: СССР
Жанр: драма, военный
Год выпуска: 1972
Продолжительность: 01:16:36 + 01:21:10

Перевод: Не требуется
Cубтитры: нет

Режиссер: Станислав Ростоцкий
В ролях: Андрей Мартынов, Ирина Шевчук, Ольга Остроумова, Елена Драпенко, Ирина Долганова, Екатерина Маркова, Людмила Зайцева, Алла Мещерякова, Георгий Мартынюк, Владимир Ивашов, Борис Токарев

Описание:
В прифронтовой полосе группа девушек-зенитчиц вынуждена вступить в неравный бой с вражескими десантниками. Эти девчонки мечтали о большой любви, нежности, семейном тепле — но на их долю выпала жестокая война, и они до конца выполнили свой воинский долг…

Сэмпл

Качество видео: DVDRip [Исходник DVD9] Ruscico
Формат видео: avi
Видео 1: 688x304 (2.26:1), 25 fps, XviD build 73 ~1218 kbps avg, 0.23 bit/pixelixel
Видео 2: 688x304 (2.26:1), 25 fps, XviD build 73 ~1141 kbps avg, 0.22 bit/pixel
Аудио: 48 kHz, MPEG Layer 3, 2 ch, ~128.00 kbps avg


General
Complete name : D:А_зори_здесь_тихие[Youtracker]1_серия.avi
Format : AVI
Format/Info : Audio Video Interleave
File size : 743 MiB
Duration : 1h 16mn
Overall bit rate : 1 357 Kbps
Movie name : 1_серия
Writing application : VirtualDubMod 1.5.10.3 | www.virtualdub-fr.org || (build 2550/release)
Copyright : Youtracker

Video
ID : 0
Format : MPEG-4 Visual
Format profile : Advanced Simple@L5
Format settings, BVOP : 2
Format settings, QPel : No
Format settings, GMC : No warppoints
Format settings, Matrix : Custom
Codec ID : XVID
Codec ID/Hint : XviD
Duration : 1h 16mn
Bit rate : 1 219 Kbps
Width : 688 pixels
Height : 304 pixels
Display aspect ratio : 2.25:1
Frame rate : 25.000 fps
Color space : YUV
Chroma subsampling : 4:2:0
Bit depth : 8 bits
Scan type : Progressive
Compression mode : Lossy
Bits/(Pixel*Frame) : 0.233
Stream size : 668 MiB (90%)
Writing library : XviD 73

Audio
ID : 1
Format : MPEG Audio
Format version : Version 1
Format profile : Layer 3
Codec ID : 55
Codec ID/Hint : MP3
Duration : 1h 16mn
Bit rate mode : Constant
Bit rate : 128 Kbps
Channel(s) : 2 channels
Sampling rate : 48.0 KHz
Compression mode : Lossy
Stream size : 70.1 MiB (9%)
Alignment : Aligned on interleaves
Interleave, duration : 40 ms (1.00 video frame)
Interleave, preload duration : 504 ms
Writing library : LAME3.99r
Encoding settings : -m s -V 4 -q 2 -lowpass 17 -b 128





Раздача от:



   Похожие торренты   Торрент   Размер 
В этой теме нет новых непрочитанных сообщений. А зори здесь тихие (1972) DVDRip by гаврила

126 | 11

1.37 ГБ

В этой теме нет новых непрочитанных сообщений. А зори здесь тихие (1972) DVDRip by FREEISLAND

21 | 4

2.44 ГБ

В этой теме нет новых непрочитанных сообщений. ...А зори здесь тихие (1972) DVDRip от Scarabey | Полная версия

669 | 25

1.41 ГБ

В этой теме нет новых непрочитанных сообщений. ...А зори здесь тихие (1972) DVDRip от Scarabey | Полная версия

1180 | 59

2.83 ГБ

В этой теме нет новых непрочитанных сообщений. А зори здесь тихие (1972) DVDRip-AVC от PowerTracker | Полная широкоэкранная версия

598 | 20

2.9 ГБ

В этой теме нет новых непрочитанных сообщений. А зори здесь тихие (1972) DVDRip от PowerTracker | Полная широкоэкранная версия

375 | 24

2.18 ГБ

В этой теме нет новых непрочитанных сообщений. А зори здесь тихие... [01-12 из 12] (2005) DVDRip от Youtracker

61 | 8

8.7 ГБ




Вы не можете начинать темы
Вы не можете отвечать на сообщения
Вы не можете редактировать свои сообщения
Вы не можете удалять свои сообщения
Вы не можете добавлять вложения

Перейти:  
Для Мосгорсуда, Роскомнадзора и рекламодателей: mosgorsud-torrent[собачка]yandex.ru
 Вход
ppkBB3cker v.2 © 2008-2014 @ PPK
[ Time : 0.622s | 15 Queries | GZIP : Off ]

Торрент трекер RUTOR.IN, Не можете зайти на rutor.org? Какой новый адрес рутор? Какое зеркало рутор? Не работает rutor.org и зеркала? Тогда наш торрент специально для вас. Rutor.in неофициальное зеркало rutor. В случае если у Вас заблокирован rutor или вдруг Вы не можете на него зайти, то Вы без труда сможете скачать бесплатно и без рекламы последние новинки кино, игр, сериалов и прочего у нас, на Rutor.in. Не нужно использовать прокси, чтобы зайти на рутор, достаточно воспользоваться нашим ресурсом. Все новые фильмы, игры, сериалы, книги и музыка за 2013 и 2014 годы через торрент бесплатно. Скачивайте фильмы в хорошем качестве, игры для пк, xbox, playstation без регистрации. У нас вы найдете новые Зарубежные сериалы и Русские сериалы 2013, 2014, 2015 годов. Оставайтесь с нами, качайте любимые фильмы, игры, сериалы, книги и музыку.