img image001 image001 image001 image001 image001 image001 image001 image001 image001 image001 image001 image001 image001 image001 image001

Planets Sun Sun Sun
Статистика раздачи
Автор: Снежана | Размер: 744.32 МБ | Добавлен: 24 июл 2013
Раздают: 20    Качают: 5
Скачать торрент
Скачать торрент
Описание торрента

СообщениеДобавлено: 24 июл 2013 

#77

Страна: СССР
Жанр: драма, военный
Год выпуска: 1958
Продолжительность: 01:15:28

Перевод: Не требуется
Cубтитры: нет

Режиссер: Евгений Ташков
В ролях: Вячеслав Тихонов, Валентина Хмара, Юрий Белов, А.Доценко, Владимир Иванов, Николай Тимофеев, Борис Битюков, Б.Годунцов, Юрий Горобец, Василий Векшин, М.Суяргулов, Олег Голубицкий, А.Кошутский, Н.Добровольский, И.Маркевич, Б. Диканский, Т. Журина, И.Максимов, Евгений Моргунов

Описание:
Одесса, осажденная гитлеровскими захватчиками, осталась без воды: немцы заняли близлежащее село, в котором находится водонапорная станция. Нужно во что бы то ни стало хоть на несколько часов дать городу воду, чтобы напоить его жителей, наполнить солдатские фляги. Попытка высадить в село десант оказалась неудачной.

Чтобы связаться с рабочими водостанции в тыл врага уходит разведчица Маша. Не имея от нее никаких вестей, командование посылает матроса Безбородько, знающего немецкий язык, снабдив его документами захваченного в плен гитлеровского офицера. Вслед за ним линию фронта переходит и весь отряд. И вот сигнал к наступлению дан. Бесшумно снят немецкий караул, пущены машины…

И пока на водонапорной станции герои-матросы ведут неравный бой с фашистами, вода идет в осажденный город, укрепляя в его жителях уверенность в победе над врагом.


Сэмпл

Качество видео: DVDRip [Исходник DVD5]
Формат видео: avi
Видео: 624x480 (1.30:1), 25 fps, XviD build 73 ~1240 kbps avg, 0.17 bit/pixel
Аудио: 48 kHz, MPEG Layer 3, 2 ch, ~128.00 kbps avg


General
Complete name : D:Zhazhda_a_DVDRip_1958.[Youtracker].by.Дядя_Лёша.avi
Format : AVI
Format/Info : Audio Video Interleave
File size : 744 MiB
Duration : 1h 15mn
Overall bit rate : 1 379 Kbps
Writing application : VirtualDubMod 1.5.10.3 | www.virtualdub-fr.org || (build 2550/release)
Writing library : VirtualDubMod build 2550/release

Video
ID : 0
Format : MPEG-4 Visual
Format profile : Advanced Simple@L5
Format settings, BVOP : 2
Format settings, QPel : No
Format settings, GMC : No warppoints
Format settings, Matrix : Custom
Codec ID : XVID
Codec ID/Hint : XviD
Duration : 1h 15mn
Bit rate : 1 241 Kbps
Width : 624 pixels
Height : 480 pixels
Display aspect ratio : 4:3
Frame rate : 25.000 fps
Color space : YUV
Chroma subsampling : 4:2:0
Bit depth : 8 bits
Scan type : Progressive
Compression mode : Lossy
Bits/(Pixel*Frame) : 0.166
Stream size : 670 MiB (90%)
Writing library : XviD 73

Audio
ID : 1
Format : MPEG Audio
Format version : Version 1
Format profile : Layer 3
Codec ID : 55
Codec ID/Hint : MP3
Duration : 1h 15mn
Bit rate mode : Constant
Bit rate : 128 Kbps
Channel(s) : 2 channels
Sampling rate : 48.0 KHz
Compression mode : Lossy
Stream size : 69.0 MiB (9%)
Alignment : Aligned on interleaves
Interleave, duration : 40 ms (1.00 video frame)
Interleave, preload duration : 504 ms
Writing library : LAME3.99r
Encoding settings : -m s -V 4 -q 2 -lowpass 17 -b 128





Раздача от:



   Похожие торренты   Торрент   Размер 
В этой теме нет новых непрочитанных сообщений. Два Фёдора (1958) DVDRip от Youtracker

18 | 7

1.46 ГБ

В этой теме нет новых непрочитанных сообщений. Два Фёдора (1958) DVDRip-AVC от Youtracker

23 | 8

1.46 ГБ

В этой теме нет новых непрочитанных сообщений. Два Фёдора (1958) DVDRip от Youtracker

3 | 2

744.94 МБ

В этой теме нет новых непрочитанных сообщений. Добровольцы (1958) DVDRip-AVC от Youtracker

16 | 9

1.46 ГБ

В этой теме нет новых непрочитанных сообщений. Добровольцы (1958) DVDRip от Youtracker

9 | 4

744.85 МБ

В этой теме нет новых непрочитанных сообщений. Добровольцы (1958) DVDRip от Youtracker

60 | 15

1.46 ГБ

В этой теме нет новых непрочитанных сообщений. Последний дюйм (1958) DVDRip от Youtracker

30 | 6

744.36 МБ




Вы не можете начинать темы
Вы не можете отвечать на сообщения
Вы не можете редактировать свои сообщения
Вы не можете удалять свои сообщения
Вы не можете добавлять вложения

Перейти:  
Для Мосгорсуда, Роскомнадзора и рекламодателей: mosgorsud-torrent[собачка]yandex.ru
 Вход
ppkBB3cker v.2 © 2008-2014 @ PPK
[ Time : 0.034s | 14 Queries | GZIP : Off ]

Торрент трекер RUTOR.IN, Не можете зайти на rutor.org? Какой новый адрес рутор? Какое зеркало рутор? Не работает rutor.org и зеркала? Тогда наш торрент специально для вас. Rutor.in неофициальное зеркало rutor. В случае если у Вас заблокирован rutor или вдруг Вы не можете на него зайти, то Вы без труда сможете скачать бесплатно и без рекламы последние новинки кино, игр, сериалов и прочего у нас, на Rutor.in. Не нужно использовать прокси, чтобы зайти на рутор, достаточно воспользоваться нашим ресурсом. Все новые фильмы, игры, сериалы, книги и музыка за 2013 и 2014 годы через торрент бесплатно. Скачивайте фильмы в хорошем качестве, игры для пк, xbox, playstation без регистрации. У нас вы найдете новые Зарубежные сериалы и Русские сериалы 2013, 2014, 2015 годов. Оставайтесь с нами, качайте любимые фильмы, игры, сериалы, книги и музыку.