img image001 image001 image001 image001 image001 image001 image001 image001 image001 image001 image001 image001 image001 image001 image001

Planets Sun Sun Sun
Статистика раздачи
Автор: Снежана | Размер: 745.17 МБ | Добавлен: 24 июл 2013
Раздают: 465    Качают: 16
Скачать торрент
Скачать торрент
Описание торрента

СообщениеДобавлено: 24 июл 2013 

#77

Страна: СССР
Жанр: драма, военный
Год выпуска: 1984
Продолжительность: 01:22:19

Перевод: Не требуется
Cубтитры: нет

Режиссер: Вадим Лысенко
В ролях: Юрий Мысенков, Юрий Орлов, Александр Кайдановский, Екатерина Крупенникова, Виктор Маляревич, Сергей Мартынов, Улдис Лиелдидж, Игорь Комаров

Описание:
Шли последние дни июня 1942 года. Фашистские войска рвались к Севастополю, бои шли уже в самом городе. Корабли Черноморского флота уже не раз прорывались в Севастополь, доставляя пополнение, боеприпасы и оружие. И вот, эсминцы «Дерзкий» и «Стремительный» получают новый приказ отправиться в Севастополь.

Этот путь известен морякам достаточно хорошо, но фашисты неоднократно минировали единственный фарватер к Севастополю, а вражеские самолеты постоянно атакуют эсминцы. Ценой потери «Дерзкого» морякам удается прорваться в Севастополь. Но самые тяжелые испытания выпадают морякам на обратном пути, когда перегруженный ранеными «Стремительный» возвращается в родной порт.

Сэмпл

Качество видео: DVDRip [Исходник DVD5]
Формат видео: avi
Видео: 640x352 (1.82:1), 25 fps, XviD build 73 ~1127 kbps avg, 0.20 bit/pixel
Аудио: 48 kHz, MPEG Layer 3, 2 ch, ~128.00 kbps avg


General
Complete name : D:Sleduju_Svoim_Kursom_a_DVDRip_1974.[Youtracker].by.Дядя_Лёша.avi
Format : AVI
Format/Info : Audio Video Interleave
File size : 745 MiB
Duration : 1h 22mn
Overall bit rate : 1 266 Kbps
Movie name : Sleduju_Svoim_Kursom_a_DVDRip_1974.[Youtracker].by.Дядя_Лёша
Writing application : VirtualDubMod 1.5.10.3 | www.virtualdub-fr.org || (build 2550/release)
Copyright : Youtracker

Video
ID : 0
Format : MPEG-4 Visual
Format profile : Advanced Simple@L5
Format settings, BVOP : 2
Format settings, QPel : No
Format settings, GMC : No warppoints
Format settings, Matrix : Custom
Codec ID : XVID
Codec ID/Hint : XviD
Duration : 1h 22mn
Bit rate : 1 128 Kbps
Width : 640 pixels
Height : 352 pixels
Display aspect ratio : 16:9
Frame rate : 25.000 fps
Color space : YUV
Chroma subsampling : 4:2:0
Bit depth : 8 bits
Scan type : Progressive
Compression mode : Lossy
Bits/(Pixel*Frame) : 0.200
Stream size : 664 MiB (89%)
Writing library : XviD 73

Audio
ID : 1
Format : MPEG Audio
Format version : Version 1
Format profile : Layer 3
Codec ID : 55
Codec ID/Hint : MP3
Duration : 1h 22mn
Bit rate mode : Constant
Bit rate : 128 Kbps
Channel(s) : 2 channels
Sampling rate : 48.0 KHz
Compression mode : Lossy
Stream size : 75.3 MiB (10%)
Alignment : Aligned on interleaves
Interleave, duration : 40 ms (1.00 video frame)
Interleave, preload duration : 504 ms
Writing library : LAME3.99r
Encoding settings : -m s -V 4 -q 2 -lowpass 17 -b 128





Раздача от:



   Похожие торренты   Торрент   Размер 
В этой теме нет новых непрочитанных сообщений. В двух шагах от «Рая» (1984) DVDRip от Youtracker

100 | 4

742.98 МБ

В этой теме нет новых непрочитанных сообщений. Действуй по обстановке (1984) DVDRip от Youtracker

18 | 8

1 ГБ

В этой теме нет новых непрочитанных сообщений. Близнец / Le Jumeau (1984) DVDRip от Youtracker | P

10 | 4

744.95 МБ

В этой теме нет новых непрочитанных сообщений. Кто этот человек? / Kim jest ten czlowiek? (1984) DVDRip от Youtracker | D

3 | 3

1.45 ГБ

В этой теме нет новых непрочитанных сообщений. Курсом Титаника (2012) SATRip

3 | 1

480.41 МБ

В этой теме нет новых непрочитанных сообщений. Идти своим путём / Going My Way (1944) DVDRip от Кинорадиомагия | P

14 | 6

1.37 ГБ

В этой теме нет новых непрочитанных сообщений. Терминатор / The Terminator (1984) DVDRip от Youtracker | P | Расширенная версия / Extended Edition

26 | 5

1.63 ГБ




Вы не можете начинать темы
Вы не можете отвечать на сообщения
Вы не можете редактировать свои сообщения
Вы не можете удалять свои сообщения
Вы не можете добавлять вложения

Перейти:  
Для Мосгорсуда, Роскомнадзора и рекламодателей: mosgorsud-torrent[собачка]yandex.ru
 Вход
ppkBB3cker v.2 © 2008-2014 @ PPK
[ Time : 0.030s | 15 Queries | GZIP : On ]

Торрент трекер RUTOR.IN, Не можете зайти на rutor.org? Какой новый адрес рутор? Какое зеркало рутор? Не работает rutor.org и зеркала? Тогда наш торрент специально для вас. Rutor.in неофициальное зеркало rutor. В случае если у Вас заблокирован rutor или вдруг Вы не можете на него зайти, то Вы без труда сможете скачать бесплатно и без рекламы последние новинки кино, игр, сериалов и прочего у нас, на Rutor.in. Не нужно использовать прокси, чтобы зайти на рутор, достаточно воспользоваться нашим ресурсом. Все новые фильмы, игры, сериалы, книги и музыка за 2013 и 2014 годы через торрент бесплатно. Скачивайте фильмы в хорошем качестве, игры для пк, xbox, playstation без регистрации. У нас вы найдете новые Зарубежные сериалы и Русские сериалы 2013, 2014, 2015 годов. Оставайтесь с нами, качайте любимые фильмы, игры, сериалы, книги и музыку.