img image001 image001 image001 image001 image001 image001 image001 image001 image001 image001 image001 image001 image001 image001 image001

Planets Sun Sun Sun
Статистика раздачи
Автор: Снежана | Размер: 742.98 МБ | Добавлен: 24 июл 2013
Раздают: 100    Качают: 4
Скачать торрент
Скачать торрент
Описание торрента

СообщениеДобавлено: 24 июл 2013 

#77

Страна: СССР
Жанр: драма, военный
Год выпуска: 1984
Продолжительность: 01:21:25

Перевод: Не требуется
Cубтитры: нет

Режиссер: Тимур Золоев
В ролях: Ремигиус Сабулис, Мартиньш Вилсонс, Алексей Булдаков, Виктор Евграфов, Роланд Загорскис, Мухтарбек Кантемиров, Ирина Мельник

Описание:
1944 год. Карпаты. Советским разведчикам поручено обнаружить и уничтожить стратегически важный объект врага — склад урановой руды, закодированный гитлеровцами под названием «Рай».

Он тщательно охраняется войсками специального назначения, подразделениями эсэсовцев, альпийскими стрелками… Три группы советских разведчиков не вернулись с задания. Теперь предстоит отправиться четвертой — под командованием капитана Долгинцева…


Сэмпл

Качество видео: DVDRip [Исходник DVD5]
Формат видео: avi
Видео: 624x480 (1.30:1), 25 fps, XviD build 73 ~1137 kbps avg, 0.15 bit/pixel
Аудио: 48 kHz, MPEG Layer 3, 2 ch, ~128.00 kbps avg


General
Complete name : D:V_Dvuh_Shagah_Ot_Raja_DVDRip_1984.[Youtracker].by.Дядя_Лёша.avi
Format : AVI
Format/Info : Audio Video Interleave
File size : 743 MiB
Duration : 1h 21mn
Overall bit rate : 1 276 Kbps
Movie name : V_Dvuh_Shagah_Ot_Raja_DVDRip_1984.[Youtracker].by.Дядя_Лёша
Writing application : VirtualDubMod 1.5.10.3 | www.virtualdub-fr.org || (build 2550/release)
Copyright : Youtracker

Video
ID : 0
Format : MPEG-4 Visual
Format profile : Advanced Simple@L5
Format settings, BVOP : 2
Format settings, QPel : No
Format settings, GMC : No warppoints
Format settings, Matrix : Custom
Codec ID : XVID
Codec ID/Hint : XviD
Duration : 1h 21mn
Bit rate : 1 138 Kbps
Width : 624 pixels
Height : 480 pixels
Display aspect ratio : 4:3
Frame rate : 25.000 fps
Color space : YUV
Chroma subsampling : 4:2:0
Bit depth : 8 bits
Scan type : Progressive
Compression mode : Lossy
Bits/(Pixel*Frame) : 0.152
Stream size : 663 MiB (89%)
Writing library : XviD 73

Audio
ID : 1
Format : MPEG Audio
Format version : Version 1
Format profile : Layer 3
Codec ID : 55
Codec ID/Hint : MP3
Duration : 1h 21mn
Bit rate mode : Constant
Bit rate : 128 Kbps
Channel(s) : 2 channels
Sampling rate : 48.0 KHz
Compression mode : Lossy
Stream size : 74.5 MiB (10%)
Alignment : Aligned on interleaves
Interleave, duration : 40 ms (1.00 video frame)
Interleave, preload duration : 504 ms
Writing library : LAME3.99r
Encoding settings : -m s -V 4 -q 2 -lowpass 17 -b 128





Раздача от:



   Похожие торренты   Торрент   Размер 
В этой теме нет новых непрочитанных сообщений. В двух шагах от «Рая» (1984) SATRip от ExKinoRay

30 | 1

1.37 ГБ

В этой теме нет новых непрочитанных сообщений. В двух шагах от "Рая" (1984) DVDRip

24 | 15

1.37 ГБ

В этой теме нет новых непрочитанных сообщений. Тайна двух океанов (1955) DVDRip-AVC от Youtracker

20 | 13

2.19 ГБ

В этой теме нет новых непрочитанных сообщений. Тайна двух океанов (1955) DVDRip от Youtracker

196 | 17

1.46 ГБ

В этой теме нет новых непрочитанных сообщений. Тайна двух океанов (1955) DVDRip от Youtracker

8 | 3

2.19 ГБ

В этой теме нет новых непрочитанных сообщений. Мойдодыр (1939,1954), Тараканище, Федорино горе, От двух до пяти, Ваня и крокодил, Краденое солнце (1939-1984) DVDRip от New-Team

568 | 33

744.47 МБ

В этой теме нет новых непрочитанных сообщений. Мойдодыр (1939,1954), Тараканище, Федорино горе, От двух до пяти, Ваня и крокодил, Краденое солнце (1939-1984) DVDRip от New-Team

397 | 34

1.45 ГБ




Вы не можете начинать темы
Вы не можете отвечать на сообщения
Вы не можете редактировать свои сообщения
Вы не можете удалять свои сообщения
Вы не можете добавлять вложения

Перейти:  
Для Мосгорсуда, Роскомнадзора и рекламодателей: mosgorsud-torrent[собачка]yandex.ru
 Вход
ppkBB3cker v.2 © 2008-2014 @ PPK
[ Time : 0.044s | 15 Queries | GZIP : Off ]

Торрент трекер RUTOR.IN, Не можете зайти на rutor.org? Какой новый адрес рутор? Какое зеркало рутор? Не работает rutor.org и зеркала? Тогда наш торрент специально для вас. Rutor.in неофициальное зеркало rutor. В случае если у Вас заблокирован rutor или вдруг Вы не можете на него зайти, то Вы без труда сможете скачать бесплатно и без рекламы последние новинки кино, игр, сериалов и прочего у нас, на Rutor.in. Не нужно использовать прокси, чтобы зайти на рутор, достаточно воспользоваться нашим ресурсом. Все новые фильмы, игры, сериалы, книги и музыка за 2013 и 2014 годы через торрент бесплатно. Скачивайте фильмы в хорошем качестве, игры для пк, xbox, playstation без регистрации. У нас вы найдете новые Зарубежные сериалы и Русские сериалы 2013, 2014, 2015 годов. Оставайтесь с нами, качайте любимые фильмы, игры, сериалы, книги и музыку.