img image001 image001 image001 image001 image001 image001 image001 image001 image001 image001 image001 image001 image001 image001 image001

Planets Sun Sun Sun
Статистика раздачи
Автор: Снежана | Размер: 742.73 МБ | Добавлен: 24 июл 2013
Раздают: 43    Качают: 5
Скачать торрент
Скачать торрент
Описание торрента

СообщениеДобавлено: 24 июл 2013 

#77

Страна: СССР
Жанр: драма, военный
Год выпуска: 1983
Продолжительность: 01:03:25

Перевод: Не требуется
Cубтитры: нет

Режиссер: Виталий Василевский
В ролях: Владимир Вихров, Леонид Яновский, Сергей Маковецкий, Михаил Семенов, Олег Куликович, Татьяна Кузнецова, Борис Сабуров

Описание:
Лето 1943 года, ток фронта. В одном из ожесточенных боев подбит танк «Т-34». Командир танка Саша Меньшов тяжело ранен. После лечения в госпитале — снова фронт. Накануне большого боя последовал приказ — в сражения не вступать, беречь силы.

Однако продолжающиеся дерзкие вылазки фашистского танка, поджегшего машину Меньшова, приводят его к решению уничтожить немецкого аса. В поединке с боевым экипажем Меньшова вражеская машина уничтожена. Эта победа явилась как бы прологом знаменитого разгрома гитлеровских полчищ в танковом сражении под Прохоровкой.


Сэмпл

Качество видео: DVDRip [Исходник DVD5]
Формат видео: avi
Видео: 640x352 (1.82:1), 25 fps, XviD build 73 ~1499 kbps avg, 0.27 bit/pixel
Аудио: 48 kHz, MPEG Layer 3, 2 ch, ~128.00 kbps avg


General
Complete name : D:Ekipazh_Mashiny_Boevoj_DVDRip_1983.[Youtracker].by.Дядя_Лёша.avi
Format : AVI
Format/Info : Audio Video Interleave
File size : 743 MiB
Duration : 1h 3mn
Overall bit rate : 1 637 Kbps
Movie name : Ekipazh_Mashiny_Boevoj_DVDRip_1983.[Youtracker].by.Дядя_Лёша
Writing application : VirtualDubMod 1.5.10.3 | www.virtualdub-fr.org || (build 2550/release)
Copyright : Youtracker

Video
ID : 0
Format : MPEG-4 Visual
Format profile : Advanced Simple@L5
Format settings, BVOP : 2
Format settings, QPel : No
Format settings, GMC : No warppoints
Format settings, Matrix : Custom
Codec ID : XVID
Codec ID/Hint : XviD
Duration : 1h 3mn
Bit rate : 1 499 Kbps
Width : 640 pixels
Height : 352 pixels
Display aspect ratio : 16:9
Frame rate : 25.000 fps
Color space : YUV
Chroma subsampling : 4:2:0
Bit depth : 8 bits
Scan type : Progressive
Compression mode : Lossy
Bits/(Pixel*Frame) : 0.266
Stream size : 680 MiB (92%)
Writing library : XviD 73

Audio
ID : 1
Format : MPEG Audio
Format version : Version 1
Format profile : Layer 3
Codec ID : 55
Codec ID/Hint : MP3
Duration : 1h 3mn
Bit rate mode : Constant
Bit rate : 128 Kbps
Channel(s) : 2 channels
Sampling rate : 48.0 KHz
Compression mode : Lossy
Stream size : 58.1 MiB (8%)
Alignment : Aligned on interleaves
Interleave, duration : 40 ms (1.00 video frame)
Interleave, preload duration : 504 ms
Writing library : LAME3.99r
Encoding settings : -m s -V 4 -q 2 -lowpass 17 -b 128





Раздача от:



   Похожие торренты   Торрент   Размер 
В этой теме нет новых непрочитанных сообщений. Экипаж машины боевой (1983) DVDRip

17 | 3

700.06 МБ

В этой теме нет новых непрочитанных сообщений. Маша и Медведь: Машины сказки [01-18] (2011-2013) BDRip-AVC, DVDRip-AVC от Youtracker

2 | 3

1.61 ГБ

В этой теме нет новых непрочитанных сообщений. Маша и Медведь: Машины сказки [01-18 из 18] (2011-2013) BDRip, DVDRip от Youtracker

57 | 8

1.88 ГБ

В этой теме нет новых непрочитанных сообщений. Экипаж / Flight (2012) BDRip от Youtracker | Лицензия

366 | 12

2.18 ГБ

В этой теме нет новых непрочитанных сообщений. Экипаж / Flight (2012) BDRip 1080p от Youtracker

19 | 4

14.4 ГБ

В этой теме нет новых непрочитанных сообщений. Боевой конь / War Horse (2011) HDRip от Youtracker | Лицензия

152 | 7

2.18 ГБ

В этой теме нет новых непрочитанных сообщений. Шел четвертый год войны... (1983) DVDRip-AVC от Youtracker

17 | 5

1.46 ГБ




Вы не можете начинать темы
Вы не можете отвечать на сообщения
Вы не можете редактировать свои сообщения
Вы не можете удалять свои сообщения
Вы не можете добавлять вложения

Перейти:  
Для Мосгорсуда, Роскомнадзора и рекламодателей: mosgorsud-torrent[собачка]yandex.ru
 Вход
ppkBB3cker v.2 © 2008-2014 @ PPK
[ Time : 0.020s | 14 Queries | GZIP : Off ]

Торрент трекер RUTOR.IN, Не можете зайти на rutor.org? Какой новый адрес рутор? Какое зеркало рутор? Не работает rutor.org и зеркала? Тогда наш торрент специально для вас. Rutor.in неофициальное зеркало rutor. В случае если у Вас заблокирован rutor или вдруг Вы не можете на него зайти, то Вы без труда сможете скачать бесплатно и без рекламы последние новинки кино, игр, сериалов и прочего у нас, на Rutor.in. Не нужно использовать прокси, чтобы зайти на рутор, достаточно воспользоваться нашим ресурсом. Все новые фильмы, игры, сериалы, книги и музыка за 2013 и 2014 годы через торрент бесплатно. Скачивайте фильмы в хорошем качестве, игры для пк, xbox, playstation без регистрации. У нас вы найдете новые Зарубежные сериалы и Русские сериалы 2013, 2014, 2015 годов. Оставайтесь с нами, качайте любимые фильмы, игры, сериалы, книги и музыку.