img image001 image001 image001 image001 image001 image001 image001 image001 image001 image001 image001 image001 image001 image001 image001

Planets Sun Sun Sun
Статистика раздачи
Автор: Снежана | Размер: 1.46 ГБ | Добавлен: 24 июл 2013
Раздают: 13    Качают: 6
Скачать торрент
Скачать торрент
Описание торрента

СообщениеДобавлено: 24 июл 2013 

#77

Страна: СССР
Жанр: драма
Год выпуска: 1981
Продолжительность: 01:34:06
Перевод: Не требуется
Субтиры: нет

Режиссёр: Владимир Фокин

В ролях: Борис Токарев, Юрий Назаров, Михаил Кокшенов, Олаф Шнайдер, Уте Любош, Джерри Вольф, Вальфриде Шмитт, Николай Скоробогатов, Олаф Боддойч, Яна Ленц, Бритт Бауманн, Штефан Март, Андреас Гутовски, Герд Михаэль Хеннеберг, Харальд Вармбрунн, Станислав Молганов, Франк Шенк, Торстен Налеппа

Описание: В основе фильма - подлинный факт. Вторая мировая война окончена, первые мирные дни. В мае 1945 года на освобожденной территории Германии советские солдаты - капитан Игорь Цветов, старшина Василий Хрищанович и рядовой Курыкин - вместе с сотрудницей немецкой газеты Тессой Генцер помогают организовать работу детского дома. Немецкие дети настороженно глядят на солдат в незнакомой форме. Еще скрываются в лесах остатки разбитых нацистких дивизий. А в приют беженцы подбрасывают грудного ребенка. Солдаты называют малыша Александром Маленьким...

Доп. информация:
Сценарий: Валентин Ежов, Владимир Фокин, Ингебург Кретчмар
Оператор: Сергей Филиппов
Художник: Эрих Крюльке
Композитор: Эдуард Артемьев
Награды: приз ВКФ в Таллинне за лучшую режиссуру (1982); серебряная медаль имени Александра Довженко (Владимир Фокин) за создание произведения на героико-патриотическую тему (1982); диплом за лучший игровой полнометражный фильм на II Всесоюзной неделе-смотре работ молодых кинематографистов в Минске (1981); главный приз по разделу художественных фильмов на II фестивале молодых кинематографистов киностудии имени Горького (1982)
Ограничения на просмотр: для любой зрительской аудитории.


Качество видео: DVDRip
Формат видео: AVI
Видео кодек: XviD
Аудио кодек: AC3
Видео: 720x544 (1.32:1), 25 fps, XviD build 73 ~1759 kbps avg, 0.18 bit/pixel
Аудио: 48 kHz, AC3 Dolby Digital, 3/2 (L,C,R,l,r) + LFE ch, 448.00 kbps avg

Раздача от:


D:Alexandr_Malenki_DVDRip_[YTN] by dexter lex.avi
General
Complete name : D:Alexandr_Malenki_DVDRip_[YTN] by dexter lex.avi
Format : AVI
Format/Info : Audio Video Interleave
File size : 1.46 GiB
Duration : 1h 34mn
Overall bit rate : 2 217 Kbps
Writing application : VirtualDubMod 1.5.10.3 | www.virtualdub-fr.org || (build 2550/release)
Writing library : VirtualDubMod build 2550/release
Video #0
ID : 0
Format : MPEG-4 Visual
Format profile : Advanced Simple@L5
Format settings, BVOP : 1
Format settings, QPel : No
Format settings, GMC : No warppoints
Format settings, Matrix : Custom
Codec ID : XVID
Codec ID/Hint : XviD
Duration : 1h 34mn
Bit rate : 1 759 Kbps
Width : 720 pixels
Height : 544 pixels
Display aspect ratio : 1.32:1
Frame rate : 25.000 fps
Color space : YUV
Chroma subsampling : 4:2:0
Bit depth : 8 bits
Scan type : Progressive
Compression mode : Lossy
Bits/(Pixel*Frame) : 0.180
Stream size : 1.16 GiB (79%)
Writing library : XviD 73
Audio #1
ID : 1
Format : AC-3
Format/Info : Audio Coding 3
Mode extension : CM (complete main)
Format settings, Endianness : Big
Codec ID : 2000
Duration : 1h 34mn
Bit rate mode : Constant
Bit rate : 448 Kbps
Channel(s) : 6 channels
Channel positions : Front: L C R, Side: L R, LFE
Sampling rate : 48.0 KHz
Bit depth : 16 bits
Compression mode : Lossy
Stream size : 302 MiB (20%)
Alignment : Split accross interleaves
Interleave, duration : 40 ms (1.00 video frame)
Interleave, preload duration : 500 ms




   Похожие торренты   Торрент   Размер 
В этой теме нет новых непрочитанных сообщений. Александр Маленький (1981) DVDRip

139 | 7

1.37 ГБ

В этой теме нет новых непрочитанных сообщений. Александр Маленький (1981) DVDRip от MediaClub | КПК

16 | 27

425.84 МБ

В этой теме нет новых непрочитанных сообщений. Александр Маленький (1981) DVDRip-AVC от ExKinoRay

18 | 14

2.6 ГБ

В этой теме нет новых непрочитанных сообщений. Отбой / Taps (1981) DVDRip от Youtracker | P

11 | 9

1.46 ГБ

В этой теме нет новых непрочитанных сообщений. Отбой / Taps (1981) DVDRip-AVC от Youtracker | P

0 | 1

2.15 ГБ

В этой теме нет новых непрочитанных сообщений. Рука / The Hand (1981) DVDRip от Youtracker | P | лицензия

0 | 1

744.96 МБ

В этой теме нет новых непрочитанных сообщений. Рука / The Hand (1981) DVDRip от Youtracker | P | лицензия

1 | 2

1.46 ГБ




Вы не можете начинать темы
Вы не можете отвечать на сообщения
Вы не можете редактировать свои сообщения
Вы не можете удалять свои сообщения
Вы не можете добавлять вложения

Перейти:  
Для Мосгорсуда, Роскомнадзора и рекламодателей: mosgorsud-torrent[собачка]yandex.ru
 Вход
ppkBB3cker v.2 © 2008-2014 @ PPK
[ Time : 0.019s | 14 Queries | GZIP : On ]

Торрент трекер RUTOR.IN, Не можете зайти на rutor.org? Какой новый адрес рутор? Какое зеркало рутор? Не работает rutor.org и зеркала? Тогда наш торрент специально для вас. Rutor.in неофициальное зеркало rutor. В случае если у Вас заблокирован rutor или вдруг Вы не можете на него зайти, то Вы без труда сможете скачать бесплатно и без рекламы последние новинки кино, игр, сериалов и прочего у нас, на Rutor.in. Не нужно использовать прокси, чтобы зайти на рутор, достаточно воспользоваться нашим ресурсом. Все новые фильмы, игры, сериалы, книги и музыка за 2013 и 2014 годы через торрент бесплатно. Скачивайте фильмы в хорошем качестве, игры для пк, xbox, playstation без регистрации. У нас вы найдете новые Зарубежные сериалы и Русские сериалы 2013, 2014, 2015 годов. Оставайтесь с нами, качайте любимые фильмы, игры, сериалы, книги и музыку.