img image001 image001 image001 image001 image001 image001 image001 image001 image001 image001 image001 image001 image001 image001 image001

Planets Sun Sun Sun
Статистика раздачи
Автор: Снежана | Размер: 742.61 МБ | Добавлен: 24 июл 2013
Раздают: 31    Качают: 1
Скачать торрент
Скачать торрент
Описание торрента

СообщениеДобавлено: 24 июл 2013 

#77

Страна: Россия
Жанр: лирическая комедия
Год выпуска: 2013
Продолжительность: 01:30:12
Перевод: Нет требуется
Субтиры: нет

Режиссёр: Вячеслав Лавров

В ролях: Мария Бортник, Максим Сапрыкин, Антон Батырев, Александра Назарова, Наталья Дворецкая, Александр Ковалев, Наталья Кудряшова, Андрей Стоянов, Лидия Кузнецова, Алина Тихонова

Описание: Не просто толстая, а очень толстая Дашка Василькова собирается в отпуск. В отпуске она собирается читать детективы, заедая их гамбургерами и тортами. Вместе с ней в отпуск идет ее подруга Машка, одержимая идеей похудения и замужества Дашки. Сама Дашка худеть не очень-то собирается. Но, уступая настойчивости Машки, ходит с ней на тренинги, занятия по фитнесу. И даже пытается сесть на диету, но быстро срывается, несмотря на то, что ей очень нравится сосед Стас, похожий на Брэда Питта. Однажды к Дашке приходит ее сестра Алка и просит приютить недели на две племянника - Ваньку, поскольку Алке надо съездить в Сочи устроить личную жизнь. Дашка соглашается, и с этого дня ее спокойной жизни приходит конец...

Качество видео: WEB-DLRip
Формат видео: AVI
Видео кодек: XviD
Аудио кодек: MP3
Видео: 688x384 (1.79:1), 25 fps, XviD build 73 ~1013 kbps avg, 0.15 bit/pixel
Аудио: 44.100 kHz, MPEG Layer 3, 2 ch, ~128.00 kbps avg

Раздача от:


D:Vanka.2013.WEB-DLRip.[YTN] by dexter lex.avi
General
Complete name : D:Vanka.2013.WEB-DLRip.[YTN] by dexter lex.avi
Format : AVI
Format/Info : Audio Video Interleave
File size : 743 MiB
Duration : 1h 30mn
Overall bit rate : 1 151 Kbps
Writing application : VirtualDubMod 1.5.10.3 | www.virtualdub-fr.org || (build 2550/release)
Writing library : VirtualDubMod build 2550/release
Video #0
ID : 0
Format : MPEG-4 Visual
Format profile : Advanced Simple@L5
Format settings, BVOP : 1
Format settings, QPel : No
Format settings, GMC : No warppoints
Format settings, Matrix : Custom
Codec ID : XVID
Codec ID/Hint : XviD
Duration : 1h 30mn
Bit rate : 1 013 Kbps
Width : 688 pixels
Height : 384 pixels
Display aspect ratio : 1.79:1
Frame rate : 25.000 fps
Color space : YUV
Chroma subsampling : 4:2:0
Bit depth : 8 bits
Scan type : Progressive
Compression mode : Lossy
Bits/(Pixel*Frame) : 0.153
Stream size : 654 MiB (88%)
Writing library : XviD 73
Audio #1
ID : 1
Format : MPEG Audio
Format version : Version 1
Format profile : Layer 3
Codec ID : 55
Codec ID/Hint : MP3
Duration : 1h 30mn
Bit rate mode : Constant
Bit rate : 128 Kbps
Channel(s) : 2 channels
Sampling rate : 44.1 KHz
Compression mode : Lossy
Stream size : 82.6 MiB (11%)
Alignment : Split accross interleaves
Interleave, duration : 40 ms (1.00 video frame)
Interleave, preload duration : 500 ms
Writing library : LAME3.99r
Encoding settings : -m s -V 4 -q 2 -lowpass 17 -b 128




   Похожие торренты   Торрент   Размер 
В этой теме нет новых непрочитанных сообщений. Ванька (2013) WEB-DLRip-AVC от ExKinoRay

517 | 14

1.37 ГБ

В этой теме нет новых непрочитанных сообщений. Ванька / (2013) WEB-DLRip от Generalfilm

11 | 5

1.37 ГБ

В этой теме нет новых непрочитанных сообщений. Ванька (2013) WEB-DLRip 720p

6 | 2

2.62 ГБ

В этой теме нет новых непрочитанных сообщений. Ванька (2013) WEB-DL 1080p

22 | 5

2.26 ГБ

В этой теме нет новых непрочитанных сообщений. Ванька (2013) SATRip от Files-x

78 | 4

1.37 ГБ

В этой теме нет новых непрочитанных сообщений. Ванька (2013) SATRip от КинозалSAT

42 | 3

700.39 МБ

В этой теме нет новых непрочитанных сообщений. Ванька (1959) SATRip

26 | 8

382.13 МБ




Вы не можете начинать темы
Вы не можете отвечать на сообщения
Вы не можете редактировать свои сообщения
Вы не можете удалять свои сообщения
Вы не можете добавлять вложения

Перейти:  
Для Мосгорсуда, Роскомнадзора и рекламодателей: mosgorsud-torrent[собачка]yandex.ru
 Вход
ppkBB3cker v.2 © 2008-2014 @ PPK
[ Time : 0.028s | 14 Queries | GZIP : Off ]

Торрент трекер RUTOR.IN, Не можете зайти на rutor.org? Какой новый адрес рутор? Какое зеркало рутор? Не работает rutor.org и зеркала? Тогда наш торрент специально для вас. Rutor.in неофициальное зеркало rutor. В случае если у Вас заблокирован rutor или вдруг Вы не можете на него зайти, то Вы без труда сможете скачать бесплатно и без рекламы последние новинки кино, игр, сериалов и прочего у нас, на Rutor.in. Не нужно использовать прокси, чтобы зайти на рутор, достаточно воспользоваться нашим ресурсом. Все новые фильмы, игры, сериалы, книги и музыка за 2013 и 2014 годы через торрент бесплатно. Скачивайте фильмы в хорошем качестве, игры для пк, xbox, playstation без регистрации. У нас вы найдете новые Зарубежные сериалы и Русские сериалы 2013, 2014, 2015 годов. Оставайтесь с нами, качайте любимые фильмы, игры, сериалы, книги и музыку.