img image001 image001 image001 image001 image001 image001 image001 image001 image001 image001 image001 image001 image001 image001 image001

Planets Sun Sun Sun
Статистика раздачи
Автор: Снежана | Размер: 1.46 ГБ | Добавлен: 24 июл 2013
Раздают: 17    Качают: 2
Скачать торрент
Скачать торрент
Описание торрента

СообщениеДобавлено: 24 июл 2013 

#77

Страна: Россия, Украина
Год выпуска: 2006
Жанр: лирическая комедия
Продолжительность: 01:38:39
Перевод: Не требуется
Субтиры: нет

Режиссер: Николай Потапов

В ролях: Павел Майков, Анна Кузина, Оксана Филоненко, Иван Бортник, Игорь Тихомиров, Андрей Павленко, Максим Коновалов, Юрий Дубровин, Сергей Гаврилюк, Александр Белина, Татьяна Камбурова, Ирина Андреева, Людмила Игнатенко, Леонид Микитенко, Ольга Орлова, Оксана Бобер, Тимофей Маскаленко, Александр Радько, Марина Исакова, Дэн Архипов

Описание: Собравшись на квартире именинника Никиты - успешного бизнесмена, - друзья перевозят его спящего на вертолёте в деревеньку, находящуюся в глухих лесах среди непроходимых болот. Сговорившись с местными крестьянами и наняв двух профессиональных актёров на роли приказчика и ключницы, они одевают всех жителей в костюмы крепостных крестьян начала XIX века. Очнувшийся Никита, видит себя в необычном костюме среди незнакомых людей, которые ему кланяются и называют не иначе как "барин Никита Петрович". Ему поначалу кажется, что он сошёл с ума, но хорошая игра актёров приводит его к убеждению, что он действительно провалился в прошлое...

Качество видео: DVDRip
Формат видео: AVI
Видео кодек: XviD
Аудио кодек: AC3
Видео: 720x544 (1.32:1), 25 fps, XviD build 73 ~1849 kbps avg, 0.19 bit/pixel
Аудио: 48 kHz, AC3 Dolby Digital, 2/0 (L,R) ch, ~256 kbps

Раздача от:


D:Барин_T01.avi
General
Complete name : D:Барин_T01.avi
Format : AVI
Format/Info : Audio Video Interleave
File size : 1.46 GiB
Duration : 1h 38mn
Overall bit rate : 2 114 Kbps
Writing application : VirtualDubMod 1.5.10.3 | www.virtualdub-fr.org || (build 2550/release)
Writing library : VirtualDubMod build 2550/release
Video #0
ID : 0
Format : MPEG-4 Visual
Format profile : Advanced Simple@L5
Format settings, BVOP : 1
Format settings, QPel : No
Format settings, GMC : No warppoints
Format settings, Matrix : Custom
Codec ID : XVID
Codec ID/Hint : XviD
Duration : 1h 38mn
Bit rate : 1 849 Kbps
Width : 720 pixels
Height : 544 pixels
Display aspect ratio : 1.32:1
Frame rate : 25.000 fps
Color space : YUV
Chroma subsampling : 4:2:0
Bit depth : 8 bits
Scan type : Progressive
Compression mode : Lossy
Bits/(Pixel*Frame) : 0.189
Stream size : 1.27 GiB (87%)
Writing library : XviD 73
Audio #1
ID : 1
Format : AC-3
Format/Info : Audio Coding 3
Mode extension : CM (complete main)
Format settings, Endianness : Big
Codec ID : 2000
Duration : 1h 38mn
Bit rate mode : Constant
Bit rate : 256 Kbps
Channel(s) : 2 channels
Channel positions : Front: L R
Sampling rate : 48.0 KHz
Bit depth : 16 bits
Compression mode : Lossy
Stream size : 181 MiB (12%)
Alignment : Split accross interleaves
Interleave, duration : 40 ms (1.00 video frame)
Interleave, preload duration : 500 ms




   Похожие торренты   Торрент   Размер 
В этой теме нет новых непрочитанных сообщений. Барин (2007) DVDRip

127 | 31

1.36 ГБ

В этой теме нет новых непрочитанных сообщений. Барин (2007) DVD5

2 | 3

3.45 ГБ

В этой теме нет новых непрочитанных сообщений. Следствие вели... с Леонидом Каневским. Барин [22.03] (2014) SATRip

118 | 22

459.98 МБ

В этой теме нет новых непрочитанных сообщений. От А до Я / A2Z (2006) DVDRip от Youtracker | P

2 | 1

689.4 МБ

В этой теме нет новых непрочитанных сообщений. Алька [01-04 из 04] (2006) DVDRip от Youtracker

80 | 12

2.88 ГБ

В этой теме нет новых непрочитанных сообщений. Сдвиг (2006) DVDRip от Youtracker

8 | 3

1.46 ГБ

В этой теме нет новых непрочитанных сообщений. Псевдоним «Албанец» [01-08 из 08] (2006) DVDRip от Youtracker

243 | 33

5.49 ГБ




Вы не можете начинать темы
Вы не можете отвечать на сообщения
Вы не можете редактировать свои сообщения
Вы не можете удалять свои сообщения
Вы не можете добавлять вложения

Перейти:  
Для Мосгорсуда, Роскомнадзора и рекламодателей: mosgorsud-torrent[собачка]yandex.ru
 Вход
ppkBB3cker v.2 © 2008-2014 @ PPK
[ Time : 0.031s | 14 Queries | GZIP : Off ]

Торрент трекер RUTOR.IN, Не можете зайти на rutor.org? Какой новый адрес рутор? Какое зеркало рутор? Не работает rutor.org и зеркала? Тогда наш торрент специально для вас. Rutor.in неофициальное зеркало rutor. В случае если у Вас заблокирован rutor или вдруг Вы не можете на него зайти, то Вы без труда сможете скачать бесплатно и без рекламы последние новинки кино, игр, сериалов и прочего у нас, на Rutor.in. Не нужно использовать прокси, чтобы зайти на рутор, достаточно воспользоваться нашим ресурсом. Все новые фильмы, игры, сериалы, книги и музыка за 2013 и 2014 годы через торрент бесплатно. Скачивайте фильмы в хорошем качестве, игры для пк, xbox, playstation без регистрации. У нас вы найдете новые Зарубежные сериалы и Русские сериалы 2013, 2014, 2015 годов. Оставайтесь с нами, качайте любимые фильмы, игры, сериалы, книги и музыку.