img image001 image001 image001 image001 image001 image001 image001 image001 image001 image001 image001 image001 image001 image001 image001

Planets Sun Sun Sun
Статистика раздачи
Автор: Снежана | Размер: 741.64 МБ | Добавлен: 24 июл 2013
Раздают: 9    Качают: 120
Скачать торрент
Скачать торрент
Описание торрента

СообщениеДобавлено: 24 июл 2013 

#77
Страна: СССР
Производство: Мосфильм
Жанр: военный
Год выпуска: 1967
Продолжительность: 01:18:19

Перевод: не требуется
Оригинальная аудиодорожка: русский
Cубтитры: нет

Режиссер: Виллен Азаров

В ролях:
Михаил Волков, Георгий Жженов, Евгений Кузнецов, Аркадий Толбузин, Владимир Кашпур, Владимир Муравьев, Николай Граббе, Бруно Фрейндлих, Владимир Покровский, Николай Прокопович, Людмила Шапошникова, Григорий Гай, Валентина Талызина, Михаил Глузский, Геннадий Юхтин, Людмила Максакова...

Описание:
Группе советских разведчиков удается внедриться в немецкий центр шпионажа «Сатурн», осуществляющий подрывную деятельность на московском направлении. Доступ к секретной информации противника позволяет нашим тайным агентам успешно осуществлять задания командования…





Исходник: DVD5 R5
Тип релиза: DVDRip-AVC
Контейнер: MKV

Видео: 704->756x400 (1.888:1), 25 fps, H264 ~ 1066 kbps avg, 0.151 bit/pixel
Аудио:48 kHz, Dolby AC3 2.0, 256 kbps

Раздача от:
Общее
Полное имя : Put'.v.Saturn.1967.DVDRip-AVC_[Youtracker]_by_AVP Studio.mkv
Формат : Matroska
Версия формата : Version 2
Размер файла : 742 Мбайт
Продолжительность : 1 ч. 18 м.
Общий поток : 1324 Кбит/сек
Дата кодирования : UTC 2013-05-10 03:11:45
Программа кодирования : mkvmerge v5.0.1 ('Es ist Sommer') built on Nov 6 2011 16:23:40
Библиотека кодирования : libebml v1.2.2 + libmatroska v1.3.0

Видео
Идентификатор : 1
Формат : AVC
Формат/Информация : Advanced Video Codec
Профиль формата : High@L4.1
Параметр CABAC формата : Да
Параметр ReFrames формата : 11 кадров
Идентификатор кодека : V_MPEG4/ISO/AVC
Продолжительность : 1 ч. 18 м.
Битрейт : 1066 Кбит/сек
Ширина : 704 пикселя
Высота : 400 пикселей
Соотношение сторон : 1,888
Соотношение сторон в оригинале : 1,887
Частота кадров : 25,000 кадров/сек
Цветовое пространство : YUV
Субдискретизация насыщенности : 4:2:0
Битовая глубина : 8 бит
Тип развёртки : Прогрессивная
Бит/(Пиксели*Кадры) : 0.151
Размер потока : 583 Мбайт (79%)
Библиотека кодирования : x264 core 119 r2106 07efeb4
Настройки программы : cabac=1 / ref=11 / deblock=1:-2:-1 / analyse=0x3:0x113 / me=umh / subme=9 / psy=1 / psy_rd=1.00:0.20 / mixed_ref=1 / me_range=32 / chroma_me=1 / trellis=1 / 8x8dct=1 / cqm=0 / deadzone=21,11 / fast_pskip=0 / chroma_qp_offset=-3 / threads=3 / sliced_threads=0 / nr=0 / decimate=0 / interlaced=0 / bluray_compat=0 / constrained_intra=0 / bframes=8 / b_pyramid=2 / b_adapt=2 / b_bias=0 / direct=3 / weightb=1 / open_gop=0 / weightp=2 / keyint=250 / keyint_min=25 / scenecut=40 / intra_refresh=0 / rc_lookahead=60 / rc=2pass / mbtree=1 / bitrate=1066 / ratetol=1.0 / qcomp=0.60 / qpmin=0 / qpmax=69 / qpstep=4 / cplxblur=20.0 / qblur=0.5 / ip_ratio=1.40 / aq=1:1.00
Default : Да
Forced : Нет

Аудио
Идентификатор : 2
Формат : AC-3
Формат/Информация : Audio Coding 3
Расширение режима : CM (complete main)
Идентификатор кодека : A_AC3
Продолжительность : 1 ч. 18 м.
Вид битрейта : Постоянный
Битрейт : 256 Кбит/сек
Каналы : 2 канала
Расположение каналов : Front: L R
Частота : 48,0 КГц
Битовая глубина : 16 бит
Метод сжатия : С потерями
Размер потока : 143 Мбайт (19%)
Default : Да
Forced : Нет





   Похожие торренты   Торрент   Размер 
В этой теме нет новых непрочитанных сообщений. Путь в «Сатурн» (1967) DVDRip от Youtracker

295 | 8

744.18 МБ

В этой теме нет новых непрочитанных сообщений. Путь в «Сатурн» (1967) DVDRip от Киномагия

17 | 10

1.45 ГБ

В этой теме нет новых непрочитанных сообщений. Взорванный ад (1967) DVDRip от Youtracker

9 | 3

1.46 ГБ

В этой теме нет новых непрочитанных сообщений. Взорванный ад (1967) DVDRip от Youtracker

17 | 2

747.57 МБ

В этой теме нет новых непрочитанных сообщений. Взорванный ад (1967) DVDRip-AVC от Youtracker

8 | 2

1.46 ГБ

В этой теме нет новых непрочитанных сообщений. Крепкий орешек (1967) DVDRip-AVC от Youtracker

14 | 6

894.66 МБ

В этой теме нет новых непрочитанных сообщений. Его звали Роберт (1967) DVDRip от Youtracker

0 | 1

746.59 МБ




Вы не можете начинать темы
Вы не можете отвечать на сообщения
Вы не можете редактировать свои сообщения
Вы не можете удалять свои сообщения
Вы не можете добавлять вложения

Перейти:  
Для Мосгорсуда, Роскомнадзора и рекламодателей: mosgorsud-torrent[собачка]yandex.ru
 Вход
ppkBB3cker v.2 © 2008-2014 @ PPK
[ Time : 0.043s | 15 Queries | GZIP : Off ]

cron