img image001 image001 image001 image001 image001 image001 image001 image001 image001 image001 image001 image001 image001 image001 image001

Planets Sun Sun Sun
Статистика раздачи
Автор: Снежана | Размер: 6.29 ГБ | Добавлен: 24 июл 2013
Раздают: 99    Качают: 45
Скачать торрент
Скачать торрент
Описание торрента

СообщениеДобавлено: 24 июл 2013 

#77

Информация о фильме
Название: Приключения солдата Ивана Чонкина
Год выхода: 2007
Жанр: Комедия, ВОВ
Режиссер: Алексей Кирющенко
В ролях: Анатолий Гущин, Геннадий Хазанов, Мария Аронова, Алексей Булдаков, Ольга Прокофьева, Евгений Воскресенский, Борис Каморзин, Татьяна Кравченко, Андрей Носков, Гарик Харламов, Александр Карпов, Дмитрий Персин, Михаил Полицеймако, Игорь Бушмелев, Олег Акулич

О фильме: Время действия — 1941 год, начало войны. Место действия — село «Красное», где стремительно развиваются отношения главных героев фильма — красноармейца Вани Чонкина и Нюры Беляшовой, и районный город Долгов с характерными для того времени жизненным укладом, органами управления — райком ВКП(б) и устрашения — районный отдел НКВД. Из простого недоразумения выросла добрая, смешная история об обаятельных деревенских людях, о нелепых ситуациях, в которые они периодически попадают. Комические и трагические ситуации неожиданно счастливо разрешаются по велению и хотению всё той же непредсказуемой русской души.



Страна: Россия
Студия: Элефант
Продолжительность: 8 x ~ 00:45:00
Язык: Русский

Файл
Кодек: MPEG-2
Качество: DVD-9
Видео: PAL 4:3 (720x576) VBR
Звук: Русский (Dolby AC3, 2 ch)



Title:
Size: 6.29 Gb ( 6 597 628 KBytes ) - DVD-9
Enabled regions: 1, 2, 3, 4, 5, 6

VTS_01 :
Play Length: 00:00:12
Video: PAL 4:3 (720x576) VBR

VTS_02 :
Play Length: 00:00:14
Video: PAL 4:3 (720x576) VBR
Audio:
Not specified (Dolby AC3, 6 ch)

VTS_03 :
Play Length: 00:44:03
Video: PAL 4:3 (720x576) VBR
Audio:
Russian (Dolby AC3, 2 ch)

VTS_04 :
Play Length: 00:44:01
Video: PAL 4:3 (720x576) VBR
Audio:
Russian (Dolby AC3, 2 ch)

VTS_05 :
Play Length: 00:44:03
Video: PAL 4:3 (720x576) VBR
Audio:
Russian (Dolby AC3, 2 ch)

VTS_06 :
Play Length: 00:44:08
Video: PAL 4:3 (720x576) VBR
Audio:
Russian (Dolby AC3, 2 ch)

VTS_07 :
Play Length: 00:44:02
Video: PAL 4:3 (720x576) VBR
Audio:
English (Dolby AC3, 2 ch)

VTS_08 :
Play Length: 00:44:20
Video: PAL 4:3 (720x576) VBR
Audio:
English (Dolby AC3, 2 ch)

VTS_09 :
Play Length: 00:44:04
Video: PAL 4:3 (720x576) VBR
Audio:
English (Dolby AC3, 2 ch)

VTS_10 :
Play Length: 00:44:02
Video: PAL 4:3 (720x576) VBR
Audio:
English (Dolby AC3, 2 ch)

Menu Video:
PAL 4:3 (720x576) VBR
Menu Subtitles:
Not specified
Menu English Language Unit :
Root Menu


Общее
Полное имя : D:1АААIvan.Chonkin.DVD-9VIDEO_TSVTS_03_1.VOB
Формат : MPEG-PS
Размер файла : 725 Мбайт
Продолжительность : 44 м.
Режим общего битрейта : Переменный
Общий поток : 2301 Кбит/сек

Видео
Идентификатор : 224 (0xE0)
Формат : MPEG Video
Версия формата : Version 2
Профиль формата : Main@Main
Параметр BVOP формата : Да
Параметр матрицы формата : Выборочная
Параметр GOP формата : M=3, N=15
Продолжительность : 44 м.
Вид битрейта : Переменный
Битрейт : 2063 Кбит/сек
Максимальный битрейт : 6000 Кбит/сек
Ширина : 352 пикселя
Высота : 576 пикселей
Соотношение сторон : 4:3
Частота кадров : 25,000 кадров/сек
Стандарт вещания : PAL
Цветовое пространство : YUV
Субдискретизация насыщенности : 4:2:0
Битовая глубина : 8 бит
Тип развёртки : Прогрессивная
Метод сжатия : С потерями
Бит/(Пиксели*Кадры) : 0.407
TimeCode_FirstFrame : 00:00:00:00
TimeCode_Source : Group of pictures header
Размер потока : 650 Мбайт (90%)

Аудио
Идентификатор : 189 (0xBD)-128 (0x80)
Формат : AC-3
Формат/Информация : Audio Coding 3
Расширение режима : CM (complete main)
Параметр Endianness формата : Big
Режим смешивания : DVD-Video
Продолжительность : 44 м.
Вид битрейта : Постоянный
Битрейт : 192 Кбит/сек
Каналы : 2 канала
Расположение каналов : Front: L R
Частота : 48,0 КГц
Битовая глубина : 16 бит
Метод сжатия : С потерями
Размер потока : 60,5 Мбайт (8%)

Меню





   Похожие торренты   Торрент   Размер 
В этой теме нет новых непрочитанных сообщений. Приключения солдата Ивана Чонкина (2007) SATRip

57 | 56

4.71 ГБ

В этой теме нет новых непрочитанных сообщений. Приключения солдата Ивана Чонкина [01-08 из 08] (2007) DVDRip от КинозалSAT

206 | 21

4.69 ГБ

В этой теме нет новых непрочитанных сообщений. Жизнь и необычайные приключения солдата Ивана Чонкина (1994) DVDRip

177 | 11

1.46 ГБ

В этой теме нет новых непрочитанных сообщений. Жизнь и необычайные приключения солдата Ивана Чонкина (1994) DVDRip

309 | 24

1.37 ГБ

В этой теме нет новых непрочитанных сообщений. Жизнь и необычайные приключения солдата Ивана Чонкина (1994) DVD9

91 | 2

6.72 ГБ

В этой теме нет новых непрочитанных сообщений. Жизнь и необычайные приключения солдата Ивана Чонкина (1994) VHSRip от Русфильм

211 | 17

1.99 ГБ

В этой теме нет новых непрочитанных сообщений. В. Войнович - Жизнь и необычайные приключения солдата Ивана Чонкина. Перемещенное лицо. (2008) MP3

236 | 6

637.34 МБ




Вы не можете начинать темы
Вы не можете отвечать на сообщения
Вы не можете редактировать свои сообщения
Вы не можете удалять свои сообщения
Вы не можете добавлять вложения

Перейти:  
Для Мосгорсуда, Роскомнадзора и рекламодателей: mosgorsud-torrent[собачка]yandex.ru
 Вход
ppkBB3cker v.2 © 2008-2014 @ PPK
[ Time : 0.052s | 15 Queries | GZIP : On ]

Торрент трекер RUTOR.IN, Не можете зайти на rutor.org? Какой новый адрес рутор? Какое зеркало рутор? Не работает rutor.org и зеркала? Тогда наш торрент специально для вас. Rutor.in неофициальное зеркало rutor. В случае если у Вас заблокирован rutor или вдруг Вы не можете на него зайти, то Вы без труда сможете скачать бесплатно и без рекламы последние новинки кино, игр, сериалов и прочего у нас, на Rutor.in. Не нужно использовать прокси, чтобы зайти на рутор, достаточно воспользоваться нашим ресурсом. Все новые фильмы, игры, сериалы, книги и музыка за 2013 и 2014 годы через торрент бесплатно. Скачивайте фильмы в хорошем качестве, игры для пк, xbox, playstation без регистрации. У нас вы найдете новые Зарубежные сериалы и Русские сериалы 2013, 2014, 2015 годов. Оставайтесь с нами, качайте любимые фильмы, игры, сериалы, книги и музыку.