img image001 image001 image001 image001 image001 image001 image001 image001 image001 image001 image001 image001 image001 image001 image001

Planets Sun Sun Sun
Статистика раздачи
Автор: Снежана | Размер: 1.46 ГБ | Добавлен: 24 июл 2013
Раздают: 25    Качают: 8
Скачать торрент
Скачать торрент
Описание торрента

СообщениеДобавлено: 24 июл 2013 

#77
Страна: СССР
Производство: Мосфильм
Жанр: триллер, военный
Год выпуска: 1972
Продолжительность: 01:21:49 + 01:14:34

Перевод: не требуется
Оригинальная аудиодорожка: русский
Cубтитры: нет

Режиссер: Виллен Азаров

В ролях:
Михаил Волков, Георгий Жженов, Николай Прокопович, Людмила Максакова, Григорий Гай, Владимир Гусев, Людмила Шапошникова, Алексей Эйбоженко, Евгений Кузнецов, Матти Клоорен, Игорь Ясулович, Валентина Хмара, Степан Бубнов, Григорий Острин, Н.Салант, Ингрид Андринь, Александр Пороховщиков...

Описание:
Завершение трилогии, начатой фильмами «Путь в «Сатурн», «Конец «Сатурна». После капитуляци Германии советский разведчик Крылов, внедряется в шпионскую организацию Гелена.
Проявляя незаурядное мужество, он пытается сорвать планы организаторов новых диверсий…





Исходник: DVD9 R5
Тип релиза: DVDRip
Контейнер: AVI

Видео: 656x304 (2,2:1), 25 fps, XviD ~ 1196 kbps avg, 0.240 bit/pixel
Аудио: 48 kHz, Dolby AC3 1.0, 128 kbps

Раздача от:
Общее
Полное имя : Boy.posle.pobedy.1972.DVDRip_[Youtracker]_by_AVP Studio�1.avi
Формат : AVI
Формат/Информация : Audio Video Interleave
Размер файла : 780 Мбайт
Продолжительность : 1 ч. 21 м.
Общий поток : 1333 Кбит/сек
Программа кодирования : VirtualDubModRus 1.5.10.2 (build 2542/release)
Библиотека кодирования : VirtualDubMod build 2542/release

Видео
Идентификатор : 0
Формат : MPEG-4 Visual
Профиль формата : Advanced Simple@L5
Параметр BVOP формата : 1
Параметр QPel формата : Нет
Параметр GMC формата : Без точки перехода
Параметр матрицы формата : Выборочная
Идентификатор кодека : XVID
Идентификатор кодека/Подсказка : XviD
Продолжительность : 1 ч. 21 м.
Битрейт : 1196 Кбит/сек
Ширина : 656 пикселей
Высота : 304 пикселя
Соотношение сторон : 2,2:1
Частота кадров : 25,000 кадров/сек
Цветовое пространство : YUV
Субдискретизация насыщенности : 4:2:0
Битовая глубина : 8 бит
Тип развёртки : Прогрессивная
Метод сжатия : С потерями
Бит/(Пиксели*Кадры) : 0.240
Размер потока : 700 Мбайт (90%)
Библиотека кодирования : XviD 65

Аудио
Идентификатор : 1
Формат : AC-3
Формат/Информация : Audio Coding 3
Расширение режима : CM (complete main)
Идентификатор кодека : 2000
Продолжительность : 1 ч. 21 м.
Вид битрейта : Постоянный
Битрейт : 128 Кбит/сек
Каналы : 1 канал
Расположение каналов : Front: C
Частота : 48,0 КГц
Битовая глубина : 16 бит
Метод сжатия : С потерями
Размер потока : 74,9 Мбайт (10%)
Выравнивание : Разделение по промежуткам
Продолжительность промежутка : 40 мс. (1,00 видеокадр)
Время предзагрузки промежутка : 500 мсОбщее
Полное имя : Boy.posle.pobedy.1972.DVDRip_[Youtracker]_by_AVP Studio�1.avi
Формат : AVI
Формат/Информация : Audio Video Interleave
Размер файла : 780 Мбайт
Продолжительность : 1 ч. 21 м.
Общий поток : 1333 Кбит/сек
Программа кодирования : VirtualDubModRus 1.5.10.2 (build 2542/release)
Библиотека кодирования : VirtualDubMod build 2542/release

Видео
Идентификатор : 0
Формат : MPEG-4 Visual
Профиль формата : Advanced Simple@L5
Параметр BVOP формата : 1
Параметр QPel формата : Нет
Параметр GMC формата : Без точки перехода
Параметр матрицы формата : Выборочная
Идентификатор кодека : XVID
Идентификатор кодека/Подсказка : XviD
Продолжительность : 1 ч. 21 м.
Битрейт : 1196 Кбит/сек
Ширина : 656 пикселей
Высота : 304 пикселя
Соотношение сторон : 2,2:1
Частота кадров : 25,000 кадров/сек
Цветовое пространство : YUV
Субдискретизация насыщенности : 4:2:0
Битовая глубина : 8 бит
Тип развёртки : Прогрессивная
Метод сжатия : С потерями
Бит/(Пиксели*Кадры) : 0.240
Размер потока : 700 Мбайт (90%)
Библиотека кодирования : XviD 65

Аудио
Идентификатор : 1
Формат : AC-3
Формат/Информация : Audio Coding 3
Расширение режима : CM (complete main)
Идентификатор кодека : 2000
Продолжительность : 1 ч. 21 м.
Вид битрейта : Постоянный
Битрейт : 128 Кбит/сек
Каналы : 1 канал
Расположение каналов : Front: C
Частота : 48,0 КГц
Битовая глубина : 16 бит
Метод сжатия : С потерями
Размер потока : 74,9 Мбайт (10%)
Выравнивание : Разделение по промежуткам
Продолжительность промежутка : 40 мс. (1,00 видеокадр)
Время предзагрузки промежутка : 500 мс





   Похожие торренты   Торрент   Размер 
В этой теме нет новых непрочитанных сообщений. Бой после победы (1972) DVDRip-AVC от Youtracker

147 | 11

1.45 ГБ

В этой теме нет новых непрочитанных сообщений. Парад Победы 24 июня 1945 года. Песни войны и победы (2005) DVDRip

316 | 3

930.86 МБ

В этой теме нет новых непрочитанных сообщений. Схватка (1972) DVDRip от Youtracker

14 | 4

1.46 ГБ

В этой теме нет новых непрочитанных сообщений. Укрощение огня (1972) DVDRip-AVC от Youtracker

505 | 7

1.45 ГБ

В этой теме нет новых непрочитанных сообщений. Золотые рога (1972) DVDRip от Youtracker

20 | 3

743.99 МБ

В этой теме нет новых непрочитанных сообщений. Руслан и Людмила (1972) DVDRip-AVC от Youtracker

70 | 15

2.18 ГБ

В этой теме нет новых непрочитанных сообщений. Руслан и Людмила (1972) DVDRip от Youtracker

149 | 22

1.46 ГБ




Вы не можете начинать темы
Вы не можете отвечать на сообщения
Вы не можете редактировать свои сообщения
Вы не можете удалять свои сообщения
Вы не можете добавлять вложения

Перейти:  
Для Мосгорсуда, Роскомнадзора и рекламодателей: mosgorsud-torrent[собачка]yandex.ru
 Вход
ppkBB3cker v.2 © 2008-2014 @ PPK
[ Time : 0.025s | 17 Queries | GZIP : Off ]

Торрент трекер RUTOR.IN, Не можете зайти на rutor.org? Какой новый адрес рутор? Какое зеркало рутор? Не работает rutor.org и зеркала? Тогда наш торрент специально для вас. Rutor.in неофициальное зеркало rutor. В случае если у Вас заблокирован rutor или вдруг Вы не можете на него зайти, то Вы без труда сможете скачать бесплатно и без рекламы последние новинки кино, игр, сериалов и прочего у нас, на Rutor.in. Не нужно использовать прокси, чтобы зайти на рутор, достаточно воспользоваться нашим ресурсом. Все новые фильмы, игры, сериалы, книги и музыка за 2013 и 2014 годы через торрент бесплатно. Скачивайте фильмы в хорошем качестве, игры для пк, xbox, playstation без регистрации. У нас вы найдете новые Зарубежные сериалы и Русские сериалы 2013, 2014, 2015 годов. Оставайтесь с нами, качайте любимые фильмы, игры, сериалы, книги и музыку.