img image001 image001 image001 image001 image001 image001 image001 image001 image001 image001 image001 image001 image001 image001 image001

Planets Sun Sun Sun
Статистика раздачи
Автор: Снежана | Размер: 743.85 МБ | Добавлен: 24 июл 2013
Раздают: 1    Качают: 5
Скачать торрент
Скачать торрент
Описание торрента

СообщениеДобавлено: 24 июл 2013 

#77

Страна: Россия
Год выпуска: 2012
Жанр: мелодрама
Продолжительность: 01:27:40
Перевод: Не требуется
Субтиры: нет

Режиссер: Вячеслав Лавров

В ролях: Наталия Антонова, Дмитрий Бедерин, Полина Тарасова, Светлана Галка, Елена Стародуб, Руслан Джайбеков, Павел Шингарев, Анжелика Волчкова, Ева Авеева, Людмила Гаврилова, Александр Курицын, Олег Леушин

Описание: В тридцать семь лет Марина ведет самую обычную жизнь современной разведенной женщины: одна воспитывает двенадцатилетнюю дочь Ксюшу, и работает учителем в художественной школе. Марине кажется, что ее жизнь уже прожита, и в ней не случится ничего нового. Но все меняется, когда Марина случайно знакомится с Никитой. Молодой человек влюбляется в нее с первого взгляда и готов на все, чтобы быть с любимой. Марина тоже испытывает чувства к Никите, но беда в том, что ему всего двадцать лет.
Разница в возрасте не смущает Никиту - он готов жениться на Марине. Но Марину пугает такая перспектива, она уверена, что окружающие их не одобрят. Она колеблется, и, наконец, сбегает от своей сумасшедшей любви в город своего детства. Родители Марины знакомят ее со своим новым соседом Игорем. Он положительный, ответственный, влюблен в Марину, а главное - ее ровесник. Марина соглашается стать женой Игоря.
Но согласится ли Никита так легко отказаться от любимой женщины?..

Качество: WEB-DLRip
Контейнер: AVI
Видео кодек: XviD
Аудио кодек: MP3
Видео: 688x384 (1.79:1), 25 fps, XviD build 73 ~1049 kbps avg, 0.16 bit/pixel
Аудио: 48 kHz, MPEG Layer 3, 2 ch, ~128.00 kbps avg

Раздача от:


D:Lyubit.nelzya.zabyt.2012.WEB-DLRip.[YTN] by dexter lex.avi
General
Complete name : D:Lyubit.nelzya.zabyt.2012.WEB-DLRip.[YTN] by dexter lex.avi
Format : AVI
Format/Info : Audio Video Interleave
File size : 744 MiB
Duration : 1h 27mn
Overall bit rate : 1 187 Kbps
Writing application : VirtualDubMod 1.5.10.3 | www.virtualdub-fr.org || (build 2550/release)
Writing library : VirtualDubMod build 2550/release
Video #0
ID : 0
Format : MPEG-4 Visual
Format profile : Advanced Simple@L5
Format settings, BVOP : 1
Format settings, QPel : No
Format settings, GMC : No warppoints
Format settings, Matrix : Custom
Codec ID : XVID
Codec ID/Hint : XviD
Duration : 1h 27mn
Bit rate : 1 049 Kbps
Width : 688 pixels
Height : 384 pixels
Display aspect ratio : 1.79:1
Frame rate : 25.000 fps
Color space : YUV
Chroma subsampling : 4:2:0
Bit depth : 8 bits
Scan type : Progressive
Compression mode : Lossy
Bits/(Pixel*Frame) : 0.159
Stream size : 658 MiB (88%)
Writing library : XviD 73
Audio #1
ID : 1
Format : MPEG Audio
Format version : Version 1
Format profile : Layer 3
Codec ID : 55
Codec ID/Hint : MP3
Duration : 1h 27mn
Bit rate mode : Constant
Bit rate : 128 Kbps
Channel(s) : 2 channels
Sampling rate : 44.1 KHz
Compression mode : Lossy
Stream size : 80.2 MiB (11%)
Alignment : Split accross interleaves
Interleave, duration : 40 ms (1.00 video frame)
Interleave, preload duration : 500 ms
Writing library : LAME3.99r
Encoding settings : -m s -V 4 -q 2 -lowpass 17 -b 128




   Похожие торренты   Торрент   Размер 
В этой теме нет новых непрочитанных сообщений. Любить нельзя забыть (2013) WEB-DLRip 720p

4 | 6

2.63 ГБ

В этой теме нет новых непрочитанных сообщений. Любить нельзя забыть (2013) WEB-DLRip от Generalfilm

5 | 5

1.37 ГБ

В этой теме нет новых непрочитанных сообщений. Любить нельзя забыть (2013) SATRip

47 | 3

1.37 ГБ

В этой теме нет новых непрочитанных сообщений. Артур - Забыть нельзя (2011) MP3

21 | 7

104.43 МБ

В этой теме нет новых непрочитанных сообщений. Артур Руденко - Забыть нельзя (2011) MP3

343 | 19

104.43 МБ

В этой теме нет новых непрочитанных сообщений. Иван Артеменко. Увековечить нельзя забыть (2014) IPTVRip

31 | 15

532.17 МБ

В этой теме нет новых непрочитанных сообщений. Любить нельзя ненавидеть [01 из 08] (2013) HDTVRip от Files-x

0 | 0

3.22 ГБ




Вы не можете начинать темы
Вы не можете отвечать на сообщения
Вы не можете редактировать свои сообщения
Вы не можете удалять свои сообщения
Вы не можете добавлять вложения

Перейти:  
Для Мосгорсуда, Роскомнадзора и рекламодателей: mosgorsud-torrent[собачка]yandex.ru
 Вход
ppkBB3cker v.2 © 2008-2014 @ PPK
[ Time : 5.745s | 15 Queries | GZIP : Off ]

cron