img image001 image001 image001 image001 image001 image001 image001 image001 image001 image001 image001 image001 image001 image001 image001

Planets Sun Sun Sun
Статистика раздачи
Автор: Снежана | Размер: 745.79 МБ | Добавлен: 24 июл 2013
Раздают: 14    Качают: 6
Скачать торрент
Скачать торрент
Описание торрента

СообщениеДобавлено: 24 июл 2013 

#77

Страна: Россия
Жанр: криминальная драма
Год выпуска: 2006
Продолжительность: 01:55:20
Перевод: Не требуется
Субтиры: нет

Режиссёр: Петр Буслов

В ролях: Владимир Вдовиченков, Андрей Мерзликин, Светлана Устинова, Николай Олялин, Александр Цуркан, Феликс Антипов, Юрий Колокольников, Анна Чурина, Александр Голубев, Константин Стрельников

Описание:
Константин Огородников (Кот) выходит из колонии, не отсидев положенный срок. После всех событий - гибели друзей, тюрьмы - Кот стал другим человеком. Он хочет начать жизнь с чистого листа. Но прежде, в память о погибшем товарище, в гибели которого невольно виноват, он должен отыскать одного человека. Однако, встреча с семнадцатилетней Дашкой переворачивает его планы. Снова Кот пройдет через множество испытаний, в которых, кажется, невозможно выжить...

Качество видео: HDRip
Формат видео: AVI
Видеок кодек: XviD
Аудио кодек: MP3
Видео: 624x352 (1.77:1), 23.976 fps, XviD build 73 ~767 kbps avg, 0.14 bit/pixel
Аудио: 48 kHz, MPEG Layer 3, 2 ch, ~128.00 kbps avg

Раздача от:


D:Bumer.Film.Vtoroy.2006.HDRip [YTN] by dexter lex.avi
General
Complete name : D:Bumer.Film.Vtoroy.2006.HDRip [YTN] by dexter lex.avi
Format : AVI
Format/Info : Audio Video Interleave
File size : 746 MiB
Duration : 1h 55mn
Overall bit rate : 904 Kbps
Writing application : VirtualDubMod 1.5.10.3 | www.virtualdub-fr.org || (build 2550/release)
Writing library : VirtualDubMod build 2550/release
Video #0
ID : 0
Format : MPEG-4 Visual
Format profile : Advanced Simple@L5
Format settings, BVOP : 1
Format settings, QPel : No
Format settings, GMC : No warppoints
Format settings, Matrix : Custom
Codec ID : XVID
Codec ID/Hint : XviD
Duration : 1h 55mn
Bit rate : 767 Kbps
Width : 624 pixels
Height : 352 pixels
Display aspect ratio : 1.77:1
Frame rate : 23.976 fps
Color space : YUV
Chroma subsampling : 4:2:0
Bit depth : 8 bits
Scan type : Progressive
Compression mode : Lossy
Bits/(Pixel*Frame) : 0.146
Stream size : 632 MiB (85%)
Writing library : XviD 73
Audio #1
ID : 1
Format : MPEG Audio
Format version : Version 1
Format profile : Layer 3
Codec ID : 55
Codec ID/Hint : MP3
Duration : 1h 55mn
Bit rate mode : Constant
Bit rate : 128 Kbps
Channel(s) : 2 channels
Sampling rate : 48.0 KHz
Compression mode : Lossy
Stream size : 106 MiB (14%)
Alignment : Aligned on interleaves
Interleave, duration : 42 ms (1.00 video frame)
Interleave, preload duration : 504 ms
Writing library : LAME3.99r
Encoding settings : -m s -V 4 -q 2 -lowpass 17 -b 128




   Похожие торренты   Торрент   Размер 
В этой теме нет новых непрочитанных сообщений. Бумер: Фильм второй (2006) HDRip от Scarabey

88 | 11

743.82 МБ

В этой теме нет новых непрочитанных сообщений. Бумер: Фильм второй (2006) HDRip от Scarabey

368 | 26

1.45 ГБ

В этой теме нет новых непрочитанных сообщений. Бумер: Фильм второй (2006) BDRip

334 | 26

1.46 ГБ

В этой теме нет новых непрочитанных сообщений. Бумер: Фильм второй (2006) BDRip 1080p

148 | 17

7.75 ГБ

В этой теме нет новых непрочитанных сообщений. Бумер: Фильм второй (2006) BDRip от HQ-ViDEO

169 | 15

2.19 ГБ

В этой теме нет новых непрочитанных сообщений. Бумер: Фильм второй (2006) BDRip 720p от leonardo 59 | Лицензия

39 | 5

8.36 ГБ

В этой теме нет новых непрочитанных сообщений. Атака титанов. Фильм второй: Конец света / Shingeki no kyojin endo obu za wârudo (2015) HDRip от MegaPeer | iTunes

84 | 3

741.92 МБ




Вы не можете начинать темы
Вы не можете отвечать на сообщения
Вы не можете редактировать свои сообщения
Вы не можете удалять свои сообщения
Вы не можете добавлять вложения

Перейти:  
Для Мосгорсуда, Роскомнадзора и рекламодателей: mosgorsud-torrent[собачка]yandex.ru
 Вход
ppkBB3cker v.2 © 2008-2014 @ PPK
[ Time : 0.033s | 14 Queries | GZIP : Off ]

Торрент трекер RUTOR.IN, Не можете зайти на rutor.org? Какой новый адрес рутор? Какое зеркало рутор? Не работает rutor.org и зеркала? Тогда наш торрент специально для вас. Rutor.in неофициальное зеркало rutor. В случае если у Вас заблокирован rutor или вдруг Вы не можете на него зайти, то Вы без труда сможете скачать бесплатно и без рекламы последние новинки кино, игр, сериалов и прочего у нас, на Rutor.in. Не нужно использовать прокси, чтобы зайти на рутор, достаточно воспользоваться нашим ресурсом. Все новые фильмы, игры, сериалы, книги и музыка за 2013 и 2014 годы через торрент бесплатно. Скачивайте фильмы в хорошем качестве, игры для пк, xbox, playstation без регистрации. У нас вы найдете новые Зарубежные сериалы и Русские сериалы 2013, 2014, 2015 годов. Оставайтесь с нами, качайте любимые фильмы, игры, сериалы, книги и музыку.