img image001 image001 image001 image001 image001 image001 image001 image001 image001 image001 image001 image001 image001 image001 image001

Planets Sun Sun Sun
Статистика раздачи
Автор: Снежана | Размер: 1.46 ГБ | Добавлен: 24 июл 2013
Раздают: 7    Качают: 7
Скачать торрент
Скачать торрент
Описание торрента

СообщениеДобавлено: 24 июл 2013 

#77
Страна: СССР
Производство: Студия Горького
Жанр: фантастика
Год выпуска: 1965
Продолжительность: 01:31:00

Перевод: не требуется
Оригинальная аудиодорожка: русский
Cубтитры: нет

Режиссер: Александр Гинцбург

В ролях:
Евгений Евстигнеев, Всеволод Сафонов, Михаил Астангов, Валентин Брылеев, Николай Бубнов, Вячеслав Гостинский, Владимир Дружников, Артем Карапетян, Константин Карельских, Наталья Климова, Степан Крылов, Михаил Кузнецов, Бруно Оя, Анатолий Ромашин, Юрий Саранцев, Алеша Ушаков, Виктор Чекмарев, Павел Шпрингфельд...

Описание:
По одноимённому роману А. Н. Толстого.
Талантливый изобретатель, создавший аппарат невиданной разрушительной силы, одержим идеей мирового господства. В своем маниакальном стремлении он совершает одно преступление за другим, не предполагая, сколь ужасными окажутся последствия для него самого…





Исходник: DVD9 R5
Тип релиза: DVDRip
Контейнер: AVI

Видео: 688x352 (1,955:1), 25 fps, XviD ~ 1835 kbps avg, 0.303 bit/pixel
Аудио: 48 kHz, Dolby AC3 5.1, 448 kbps

Раздача от:
Общее
Полное имя : Giperboloid.inzhenera.Garina.1965.DVDRip_[Youtracker]_by_AVP Studio.avi
Формат : AVI
Формат/Информация : Audio Video Interleave
Размер файла : 1,46 Гбайт
Продолжительность : 1 ч. 31 м.
Общий поток : 2292 Кбит/сек
Программа кодирования : VirtualDubModRus 1.5.10.2 (build 2542/release)
Библиотека кодирования : VirtualDubMod build 2542/release

Видео
Идентификатор : 0
Формат : MPEG-4 Visual
Профиль формата : Advanced Simple@L5
Параметр BVOP формата : 1
Параметр QPel формата : Нет
Параметр GMC формата : Без точки перехода
Параметр матрицы формата : Выборочная
Идентификатор кодека : XVID
Идентификатор кодека/Подсказка : XviD
Продолжительность : 1 ч. 31 м.
Битрейт : 1835 Кбит/сек
Ширина : 688 пикселей
Высота : 352 пикселя
Соотношение сторон : 1,955
Частота кадров : 25,000 кадров/сек
Цветовое пространство : YUV
Субдискретизация насыщенности : 4:2:0
Битовая глубина : 8 бит
Тип развёртки : Прогрессивная
Метод сжатия : С потерями
Бит/(Пиксели*Кадры) : 0.303
Размер потока : 1,17 Гбайт (80%)
Библиотека кодирования : XviD 65

Аудио
Идентификатор : 1
Формат : AC-3
Формат/Информация : Audio Coding 3
Расширение режима : CM (complete main)
Идентификатор кодека : 2000
Продолжительность : 1 ч. 31 м.
Вид битрейта : Постоянный
Битрейт : 448 Кбит/сек
Каналы : 6 каналов
Расположение каналов : Front: L C R, Side: L R, LFE
Частота : 48,0 КГц
Битовая глубина : 16 бит
Метод сжатия : С потерями
Размер потока : 292 Мбайт (20%)
Выравнивание : Разделение по промежуткам
Продолжительность промежутка : 40 мс. (1,00 видеокадр)
Время предзагрузки промежутка : 500 мс






   Похожие торренты   Торрент   Размер 
В этой теме нет новых непрочитанных сообщений. Гиперболоид инженера Гарина (1965) DVDRip-AVC от Youtracker

116 | 9

1.46 ГБ

В этой теме нет новых непрочитанных сообщений. Гиперболоид инженера Гарина (1965) DVDRip от Youtracker

19 | 7

744.9 МБ

В этой теме нет новых непрочитанных сообщений. Толстой А. Н. - Гиперболоид инженера Гарина (2005) МР3

5 | 4

643.83 МБ

В этой теме нет новых непрочитанных сообщений. А. Н. Толстой - Гиперболоид инженера Гарина. Аудиоспектакль (2008) MP3

267 | 7

332.38 МБ

В этой теме нет новых непрочитанных сообщений. Крах инженера Гарина (1973) DVDRip-AVC

139 | 48

4.53 ГБ

В этой теме нет новых непрочитанных сообщений. Крах инженера Гарина [01-02 серии из 04] (1973) DVDRip

63 | 8

2.2 ГБ

В этой теме нет новых непрочитанных сообщений. Крах инженера Гарина [03-04 серии из 04] (1973) DVDRip

54 | 11

2.17 ГБ




Вы не можете начинать темы
Вы не можете отвечать на сообщения
Вы не можете редактировать свои сообщения
Вы не можете удалять свои сообщения
Вы не можете добавлять вложения

Перейти:  
Для Мосгорсуда, Роскомнадзора и рекламодателей: mosgorsud-torrent[собачка]yandex.ru
 Вход
ppkBB3cker v.2 © 2008-2014 @ PPK
[ Time : 0.035s | 15 Queries | GZIP : Off ]

Торрент трекер RUTOR.IN, Не можете зайти на rutor.org? Какой новый адрес рутор? Какое зеркало рутор? Не работает rutor.org и зеркала? Тогда наш торрент специально для вас. Rutor.in неофициальное зеркало rutor. В случае если у Вас заблокирован rutor или вдруг Вы не можете на него зайти, то Вы без труда сможете скачать бесплатно и без рекламы последние новинки кино, игр, сериалов и прочего у нас, на Rutor.in. Не нужно использовать прокси, чтобы зайти на рутор, достаточно воспользоваться нашим ресурсом. Все новые фильмы, игры, сериалы, книги и музыка за 2013 и 2014 годы через торрент бесплатно. Скачивайте фильмы в хорошем качестве, игры для пк, xbox, playstation без регистрации. У нас вы найдете новые Зарубежные сериалы и Русские сериалы 2013, 2014, 2015 годов. Оставайтесь с нами, качайте любимые фильмы, игры, сериалы, книги и музыку.
cron