img image001 image001 image001 image001 image001 image001 image001 image001 image001 image001 image001 image001 image001 image001 image001

Planets Sun Sun Sun
Статистика раздачи
Автор: Снежана | Размер: 11.55 ГБ | Добавлен: 24 июл 2013
Раздают: 7    Качают: 12
Скачать торрент
Скачать торрент
Описание торрента

СообщениеДобавлено: 24 июл 2013 

#77

Год выпуска: 2008
Производство: Централ Партнершип, Беларусьфильм
Жанр: Сериал, Военный, Драма
Продолжительность: 208 минут

Режиссёр: Александр Франскевич-Лайе

В ролях: Сергей Безруков, Павел Делонг, Магдалена Гурская, Ростислав Янковский, Владимир Янковский, Михаил Калиничев, Александр Франскевич-Лайе, Алеся Пуховая, Рафаэль Мукаев, Виталий Безруков, Олег Коц, Леонид Улащенко, Джульетта Геринг (Казакевич), Екатерина Вежновец, Игорь Сигов, Иван Павлов, Владимир Мищанчук, Сергей Прокопич

Описание: Накануне войны лейтенант погранвойск Иван Буров прибывает из краткосрочного отпуска для продолжения службы на границе СССР и Польши. После нападения германских войск Буров единственный, кто остается в живых на вверенном ему участке государственной границы. Тем временем враг уже продвинулся далеко на восток. Узнав, что оккупанты хозяйничают в деревне, где живет Ханна — возлюбленная Бурова, он решает вести собственную войну с захватчиками. В одиночку, среди болот и лесов, в жару и в холод, без сна и отдыха, Буров становится серьезной угрозой для фашистов, своеобразным «духом мщения» — за погибших товарищей, за отнятое право любить…

Доп. информация:
Сценарий: Александр Франскевич-Лайе, Станислав Говорухин, Сергей Ашкенази, Глеб Шпригов
Композитор: Александр Зацепин, Владимир Сивицкий





Качество: DVD9
Формат: DVD Video
Видео кодек: MPEG2
Аудио кодек: AC3, DTS
Видео: MPEG2, 720х576, 25fps, 7725kbps, 0.614b/px
Аудио: AC3 Dolby Digital, 48000Hz, 448kbps, 6 channel
Аудио: Digital Theater Systems, 48000Hz, 755kbps, 6 channel
General
Complete name : D:torrentV.Iune.1941.2008.O.DVD91VTS_05_1.VOB
Format : MPEG-PS
File size : 1 024 MiB
Duration : 18mn 31s
Overall bit rate mode : Variable
Overall bit rate : 7 725 Kbps

Video
ID : 224 (0xE0)
Format : MPEG Video
Format version : Version 2
Format profile : Main@Main
Format settings, BVOP : Yes
Format settings, Matrix : Custom
Format settings, GOP : M=3, N=15
Duration : 18mn 31s
Bit rate mode : Variable
Bit rate : 6 369 Kbps
Maximum bit rate : 8 000 Kbps
Width : 720 pixels
Height : 576 pixels
Display aspect ratio : 16:9
Frame rate : 25.000 fps
Standard : PAL
Color space : YUV
Chroma subsampling : 4:2:0
Bit depth : 8 bits
Scan type : Interlaced
Scan order : Top Field First
Compression mode : Lossy
Bits/(Pixel*Frame) : 0.614
Stream size : 844 MiB (82%)

Audio #1
ID : 189 (0xBD)-128 (0x80)
Format : AC-3
Format/Info : Audio Coding 3
Mode extension : CM (complete main)
Muxing mode : DVD-Video
Duration : 18mn 31s
Bit rate mode : Constant
Bit rate : 448 Kbps
Channel(s) : 6 channels
Channel positions : Front: L C R, Side: L R, LFE
Sampling rate : 48.0 KHz
Bit depth : 16 bits
Compression mode : Lossy
Delay relative to video : -80ms
Stream size : 59.4 MiB (6%)

Audio #2
ID : 189 (0xBD)-137 (0x89)
Format : DTS
Format/Info : Digital Theater Systems
Muxing mode : DVD-Video
Duration : 18mn 31s
Bit rate mode : Constant
Bit rate : 755 Kbps
Channel(s) : 6 channels
Channel positions : Front: L C R, Side: L R, LFE
Sampling rate : 48.0 KHz
Bit depth : 24 bits
Compression mode : Lossy
Delay relative to video : -80ms
Stream size : 100.0 MiB (10%)

Title: Disk-1
Size: 5.95 Gb ( 6 236 434,00 KBytes ) - DVD-9
Enabled regions: 1, 2, 3, 4, 5, 6, 7, 8

VTS_01 :
Play Length: 00:00:05
Video: PAL 4:3 (720x576) VBR

VTS_02 :
Play Length: 00:00:11
Video: PAL 4:3 (720x576) VBR
Audio:
Not specified (Dolby AC3, 6 ch)

VTS_03 :
Play Length: 00:02:06
Video: PAL 4:3 (720x576) VBR
Audio:
Not specified (Dolby AC3, 2 ch)
English (Dolby AC3, 2 ch)
Subtitles:
Not specified

VTS_04 :
Play Length: 00:52:04
Video: PAL 4:3 (720x576) VBR
Audio:
Russian (Dolby AC3, 6 ch)
Russian (DTS, 6 ch)

VTS_05 :
Play Length: 00:52:10
Video: PAL 4:3 (720x576) VBR
Audio:
Russian (Dolby AC3, 6 ch)
Russian (DTS, 6 ch)

* Menus Information *

VIDEO_TS Menu
Video:
PAL 4:3 (720x576) VBR
English Language Unit :
Title Menu

VTS_01 Menu
Video:
PAL 4:3 (720x576) VBR
Audio:
Not specified (Dolby AC3, 2 ch)
English Language Unit :
Root Menu

VTS_02 Menu
Video:
PAL 4:3 (720x576) VBR
English Language Unit :
Root Menu

VTS_03 Menu
Video:
PAL 4:3 (720x576) VBR
English Language Unit :
Root Menu

VTS_04 Menu
Video:
PAL 4:3 (720x576) VBR
English Language Unit :
Root Menu

VTS_05 Menu
Video:
PAL 4:3 (720x576) VBR
English Language Unit :
Root Menu

Title: Disk-2
Size: 5.60 Gb ( 5 869 486,00 KBytes ) - DVD-9
Enabled regions: 1, 2, 3, 4, 5, 6, 7, 8

VTS_01 :
Play Length: 00:00:05
Video: PAL 4:3 (720x576) VBR

VTS_02 :
Play Length: 00:00:11
Video: PAL 4:3 (720x576) VBR
Audio:
Not specified (Dolby AC3, 6 ch)

VTS_03 :
Play Length: 00:02:06
Video: PAL 4:3 (720x576) VBR
Audio:
Not specified (Dolby AC3, 2 ch)
English (Dolby AC3, 2 ch)
Subtitles:
Not specified

VTS_04 :
Play Length: 00:52:00
Video: PAL 4:3 (720x576) VBR
Audio:
Russian (Dolby AC3, 6 ch)
Russian (DTS, 6 ch)

VTS_05 :
Play Length: 00:52:08
Video: PAL 4:3 (720x576) VBR
Audio:
Russian (Dolby AC3, 6 ch)
Russian (DTS, 6 ch)

VTS_06 :
Play Length: 00:02:07
Video: PAL 4:3 (720x576) VBR
Audio:
Not specified (Dolby AC3, 2 ch)
Subtitles:
Not specified

VTS_07 :
Play Length: 00:01:39
Video: PAL 4:3 (720x576) VBR
Audio:
Not specified (Dolby AC3, 2 ch)
Subtitles:
Not specified

VTS_08 :
Play Length: 00:02:02
Video: PAL 16:9 (720x576) VBR, Auto Letterboxed
Audio:
Not specified (Dolby AC3, 2 ch)
Subtitles:
Not specified

* Menus Information *

VIDEO_TS Menu
Video:
PAL 4:3 (720x576) VBR
English Language Unit :
Title Menu

VTS_01 Menu
Video:
PAL 4:3 (720x576) VBR
Audio:
Not specified (Dolby AC3, 2 ch)
English Language Unit :
Root Menu

VTS_02 Menu
Video:
PAL 4:3 (720x576) VBR
English Language Unit :
Root Menu

VTS_03 Menu
Video:
PAL 4:3 (720x576) VBR
English Language Unit :
Root Menu

VTS_04 Menu
Video:
PAL 4:3 (720x576) VBR
English Language Unit :
Root Menu

VTS_05 Menu
Video:
PAL 4:3 (720x576) VBR
English Language Unit :
Root Menu

VTS_06 Menu
Video:
PAL 4:3 (720x576) VBR
English Language Unit :
Root Menu

VTS_07 Menu
Video:
PAL 4:3 (720x576) VBR
English Language Unit :
Root Menu

VTS_08 Menu
Video:
PAL 4:3 (720x576) VBR
English Language Unit :
Root Menu





   Похожие торренты   Торрент   Размер 
В этой теме нет новых непрочитанных сообщений. В июне 1941 (2008) DVDRip

256 | 28

1.46 ГБ

В этой теме нет новых непрочитанных сообщений. В июне 1941 (2008) DVDRip

320 | 51

2.18 ГБ

В этой теме нет новых непрочитанных сообщений. В июне 1941(2008) DVDRip

27 | 94

2.74 ГБ

В этой теме нет новых непрочитанных сообщений. В июне 1941 (2008) DVDRip | КПК

11 | 6

1.37 ГБ

В этой теме нет новых непрочитанных сообщений. Весна 1941 / Spring 1941 (2008) HDTVRip 720p от RG MixTorrent | P

14 | 2

2.15 ГБ

В этой теме нет новых непрочитанных сообщений. Весна 1941 / Spring 1941 (2008) BDRip от HELLYWOOD

2 | 3

1.45 ГБ

В этой теме нет новых непрочитанных сообщений. Весна 1941 / Spring 1941 (2008) DVDRip от Киномагия

0 | 2

1.37 ГБ




Вы не можете начинать темы
Вы не можете отвечать на сообщения
Вы не можете редактировать свои сообщения
Вы не можете удалять свои сообщения
Вы не можете добавлять вложения

Перейти:  
Для Мосгорсуда, Роскомнадзора и рекламодателей: mosgorsud-torrent[собачка]yandex.ru
 Вход
ppkBB3cker v.2 © 2008-2014 @ PPK
[ Time : 0.079s | 15 Queries | GZIP : Off ]

Торрент трекер RUTOR.IN, Не можете зайти на rutor.org? Какой новый адрес рутор? Какое зеркало рутор? Не работает rutor.org и зеркала? Тогда наш торрент специально для вас. Rutor.in неофициальное зеркало rutor. В случае если у Вас заблокирован rutor или вдруг Вы не можете на него зайти, то Вы без труда сможете скачать бесплатно и без рекламы последние новинки кино, игр, сериалов и прочего у нас, на Rutor.in. Не нужно использовать прокси, чтобы зайти на рутор, достаточно воспользоваться нашим ресурсом. Все новые фильмы, игры, сериалы, книги и музыка за 2013 и 2014 годы через торрент бесплатно. Скачивайте фильмы в хорошем качестве, игры для пк, xbox, playstation без регистрации. У нас вы найдете новые Зарубежные сериалы и Русские сериалы 2013, 2014, 2015 годов. Оставайтесь с нами, качайте любимые фильмы, игры, сериалы, книги и музыку.