img image001 image001 image001 image001 image001 image001 image001 image001 image001 image001 image001 image001 image001 image001 image001

Planets Sun Sun Sun
Статистика раздачи
Автор: Снежана | Размер: 1.78 ГБ | Добавлен: 24 июл 2013
Раздают: 29    Качают: 8
Скачать торрент
Скачать торрент
Описание торрента

СообщениеДобавлено: 24 июл 2013 

#77

Информация о фильме
Оригинальное название: Операция «Ы» и другие приключения Шурика
Год выпуска: 1965
Жанр: Эксцентрическая комедия, мелодрама, криминал
Режиссер: Леонид Гайдай
В ролях: Александр Демьяненко, Алексей Смирнов (I), Наталья Селезнева, Георгий Вицин, Евгений Моргунов, Юрий Никулин, Михаил Пуговкин, Владимир Басов, Владимир Раутбарт, Виктор Павлов, Владимир Владиславский, Мария Кравчуновская, Эммануил Геллер, Рина Зелёная, Виктор Уральский, Георгий Ахундов, Валентина Березуцкая, Светлана Агеева, Валерий Носик, Георгий Георгиу, Людмила Ковалец, Владимир Гуляев, Владимир Удалов, Игорь Суровцев, Нина Делекторская, Иван Турченков, Виктор Гераскин, Елена Судакова, Николай Казаков, Владимир Приходько, Владимир Комаровский, Виктор Зозулин, Сергей Жирнов, Зоя Федорова, Наталья Гицерот

О фильме: Фильм состоит из трех новелл, объединенных фигурой главного героя Шурика, попадающего в самые невероятные ситуации. В «Напарнике» Шурик сражается с хулиганом Верзилой; в «Наваждении» весьма оригинальным способом готовится к экзамену; в «Операции «Ы» предотвращает «ограбление века», на которое идет знаменитая тройка - Балбес, Трус и Бывалый.



Страна: СССР
Студия: Мосфильм
Продолжительность: 01:34:33

Файл
Качество: BDRip (AVC)
Видео: MPEG-4 AVC, 2243 Кбит/c, 758x576, 23.976 кадр/c
Звук: Русский (AC3, 6 ch, 448 Кбит/c)

Семпл




Общее
Уникальный идентификатор : 231157557384746063750995184530680139724 (0xADE7537F79AFE51C98652C276F7F4FCC)
Полное имя : D:Mои раздачиOperaciya.Y.1965.BDRip.(AVC)-MediaClub.mkv
Формат : Matroska
Версия формата : Version 2
Размер файла : 1,78 Гбайт
Продолжительность : 1 ч. 34 м.
Общий поток : 2693 Кбит/сек
Название фильма : Операция "Ы" (MediaClub-kaspr)
Дата кодирования : UTC 2013-05-18 15:54:57
Программа кодирования : mkvmerge v5.7.0 ('The Whirlwind') built on Aug 7 2012 14:11:40
Библиотека кодирования : libebml v1.2.3 + libmatroska v1.3.0

Видео
Идентификатор : 1
Формат : AVC
Формат/Информация : Advanced Video Codec
Профиль формата : High@L4.1
Параметр CABAC формата : Да
Параметр ReFrames формата : 8 кадров
Идентификатор кодека : V_MPEG4/ISO/AVC
Продолжительность : 1 ч. 34 м.
Битрейт : 2243 Кбит/сек
Ширина : 758 пикселей
Высота : 576 пикселей
Соотношение сторон : 4:3
Режим частоты кадров : Постоянный
Частота кадров : 23,976 кадра/сек
Цветовое пространство : YUV
Субдискретизация насыщенности : 4:2:0
Битовая глубина : 8 бит
Тип развёртки : Прогрессивная
Бит/(Пиксели*Кадры) : 0.214
Размер потока : 1,45 Гбайт (81%)
Заголовок : Операция "Ы" (MediaClub-kaspr)
Библиотека кодирования : x264 core 130 r2273 b3065e6
Настройки программы : cabac=1 / ref=8 / deblock=1:-3:-3 / analyse=0x3:0x133 / me=umh / subme=11 / psy=1 / psy_rd=1.00:0.10 / mixed_ref=1 / me_range=32 / chroma_me=1 / trellis=2 / 8x8dct=1 / cqm=0 / deadzone=21,11 / fast_pskip=0 / chroma_qp_offset=-3 / threads=12 / lookahead_threads=1 / sliced_threads=0 / nr=0 / decimate=0 / interlaced=0 / bluray_compat=0 / constrained_intra=0 / bframes=6 / b_pyramid=2 / b_adapt=2 / b_bias=0 / direct=3 / weightb=1 / open_gop=0 / weightp=2 / keyint=240 / keyint_min=22 / scenecut=40 / intra_refresh=0 / rc=2pass / mbtree=0 / bitrate=2243 / ratetol=1.0 / qcomp=0.60 / qpmin=0 / qpmax=69 / qpstep=4 / cplxblur=20.0 / qblur=0.5 / ip_ratio=1.40 / pb_ratio=1.30 / aq=1:1.00
Default : Да
Forced : Нет

Аудио
Идентификатор : 2
Формат : AC-3
Формат/Информация : Audio Coding 3
Расширение режима : CM (complete main)
Параметр Endianness формата : Big
Идентификатор кодека : A_AC3
Продолжительность : 1 ч. 34 м.
Вид битрейта : Постоянный
Битрейт : 448 Кбит/сек
Каналы : 6 каналов
Расположение каналов : Front: L C R, Side: L R, LFE
Частота : 48,0 КГц
Битовая глубина : 16 бит
Метод сжатия : С потерями
Размер потока : 303 Мбайт (17%)
Язык : Russian
Default : Да
Forced : Да

Меню
00:00:00.000 : en:Chapter 01
00:03:46.935 : en:Chapter 02
00:08:52.615 : en:Chapter 03
00:13:58.629 : en:Chapter 04
00:17:53.322 : en:Chapter 05
00:25:03.502 : en:Chapter 06
00:31:35.893 : en:Chapter 07
00:35:16.948 : en:Chapter 08
00:41:43.584 : en:Chapter 09
00:45:58.630 : en:Chapter 10
00:52:43.160 : en:Chapter 11
00:57:14.055 : en:Chapter 12
01:03:11.037 : en:Chapter 13
01:06:33.489 : en:Chapter 14
01:13:24.608 : en:Chapter 15
01:15:08.212 : en:Chapter 16
01:20:51.513 : en:Chapter 17
01:29:02.003 : en:Chapter 18

---[NoImage] x264 [info]: frame I:967 Avg QP:16.98 size: 76018
---[NoImage] x264 [info]: frame P:32370 Avg QP:19.90 size: 24896
---[NoImage] x264 [info]: frame B:102695 Avg QP:21.81 size: 6927
---[NoImage] x264 [info]: consecutive B-frames: 2.8% 3.4% 10.7% 25.5% 16.3% 39.8% 1.5%
---[NoImage] x264 [info]: mb I I16..4: 6.6% 66.6% 26.8%
---[NoImage] x264 [info]: mb P I16..4: 0.3% 10.5% 1.7% P16..4: 31.1% 36.0% 15.7% 2.9% 0.3% skip: 1.4%
---[NoImage] x264 [info]: mb B I16..4: 0.0% 1.2% 0.2% B16..8: 31.6% 23.3% 4.7% direct: 5.2% skip:33.8% L0:35.6% L1:44.7% BI:19.7%
---[NoImage] x264 [info]: 8x8 transform intra:81.0% inter:56.3%
---[NoImage] x264 [info]: direct mvs spatial:99.3% temporal:0.7%
---[NoImage] x264 [info]: coded y,uvDC,uvAC intra: 96.0% 88.2% 65.1% inter: 27.6% 21.7% 9.2%
---[NoImage] x264 [info]: i16 v,h,dc,p: 10% 7% 16% 67%
---[NoImage] x264 [info]: i8 v,h,dc,ddl,ddr,vr,hd,vl,hu: 11% 11% 6% 9% 13% 13% 12% 13% 13%
---[NoImage] x264 [info]: i4 v,h,dc,ddl,ddr,vr,hd,vl,hu: 12% 10% 3% 8% 15% 15% 13% 11% 12%
---[NoImage] x264 [info]: i8c dc,h,v,p: 38% 23% 22% 17%
---[NoImage] x264 [info]: Weighted P-Frames: Y:17.6% UV:5.3%
---[NoImage] x264 [info]: ref P L0: 47.1% 16.0% 17.0% 5.7% 4.8% 3.3% 3.2% 2.1% 0.7% 0.1%
---[NoImage] x264 [info]: ref B L0: 84.1% 8.7% 3.0% 1.7% 1.2% 0.8% 0.5%
---[NoImage] x264 [info]: ref B L1: 96.6% 3.4%
---[NoImage] x264 [info]: kb/s:2242.99


Релиз от:



   Похожие торренты   Торрент   Размер 
В этой теме нет новых непрочитанных сообщений. Операция «Ы» и другие приключения Шурика (1965) BDRip от MediaClub | КПК

329 | 9

410.24 МБ

В этой теме нет новых непрочитанных сообщений. Операция «Ы» и другие приключения Шурика (1965) BDRip 720p от MediaClub

107 | 16

4.37 ГБ

В этой теме нет новых непрочитанных сообщений. Операция «Ы» и другие приключения Шурика (1965) BDRip 1080p

466 | 34

4.37 ГБ

В этой теме нет новых непрочитанных сообщений. Операция «Ы» и другие приключения Шурика (1965) BDRip | КПК от ImperiaFilm

42 | 0

323.23 МБ

В этой теме нет новых непрочитанных сообщений. Операция «Ы» и другие приключения Шурика (1965) BDRip-AVC от R.G. HD-Films | 60 fps

615 | 46

2.87 ГБ

В этой теме нет новых непрочитанных сообщений. Операция «Ы» и другие приключения Шурика (1965) BDRip от HQCLUB

1030 | 61

1.45 ГБ

В этой теме нет новых непрочитанных сообщений. Операция «Ы» и другие приключения Шурика (1965) BDRip от Youtracker

78 | 11

1.45 ГБ




Вы не можете начинать темы
Вы не можете отвечать на сообщения
Вы не можете редактировать свои сообщения
Вы не можете удалять свои сообщения
Вы не можете добавлять вложения

Перейти:  
Для Мосгорсуда, Роскомнадзора и рекламодателей: mosgorsud-torrent[собачка]yandex.ru
 Вход
ppkBB3cker v.2 © 2008-2014 @ PPK
[ Time : 0.041s | 15 Queries | GZIP : Off ]

Торрент трекер RUTOR.IN, Не можете зайти на rutor.org? Какой новый адрес рутор? Какое зеркало рутор? Не работает rutor.org и зеркала? Тогда наш торрент специально для вас. Rutor.in неофициальное зеркало rutor. В случае если у Вас заблокирован rutor или вдруг Вы не можете на него зайти, то Вы без труда сможете скачать бесплатно и без рекламы последние новинки кино, игр, сериалов и прочего у нас, на Rutor.in. Не нужно использовать прокси, чтобы зайти на рутор, достаточно воспользоваться нашим ресурсом. Все новые фильмы, игры, сериалы, книги и музыка за 2013 и 2014 годы через торрент бесплатно. Скачивайте фильмы в хорошем качестве, игры для пк, xbox, playstation без регистрации. У нас вы найдете новые Зарубежные сериалы и Русские сериалы 2013, 2014, 2015 годов. Оставайтесь с нами, качайте любимые фильмы, игры, сериалы, книги и музыку.
cron