img image001 image001 image001 image001 image001 image001 image001 image001 image001 image001 image001 image001 image001 image001 image001

Planets Sun Sun Sun
Статистика раздачи
Автор: Снежана | Размер: 1.45 ГБ | Добавлен: 24 июл 2013
Раздают: 78    Качают: 11
Скачать торрент
Скачать торрент
Описание торрента

СообщениеДобавлено: 24 июл 2013 

#77

Страна: СССР
Жанр: мелодрама, комедия, криминалслова
Год выпуска: 1965

Продолжительность: 01:34:33


Перевод: Не требуется

Режиссер: Леонид Гайдай

В ролях:
Александр Демьяненко (Шурик), Наталья Селезнёва (Лида, новелла «Наваждение»), Алексей Смирнов (верзила, новелла «Напарник» / недовольный покупатель, новелла «Операция «Ы»), Юрий Никулин (Балбес, новелла «Операция «Ы»), Евгений Моргунов (Бывалый, новелла «Операция «Ы»), Георгий Вицин (Трус, новелла «Операция «Ы»), Михаил Пуговкин (прораб, новелла «Напарник»), Виктор Павлов (Дуб, новелла «Наваждение»), Владимир Басов (суровый милиционер, новелла «Напарник»), Рина Зеленая (возмущённая пассажирка, новелла «Напарник»), Виктор Уральский (повар, новелла «Напарник»), Георгий Ахундов (лысый пассажир в автобусе № 13, новелла «Напарник»)


Описание: Фильм состоит из трех новелл, объединенных фигурой главного героя Шурика, попадающего в самые невероятные ситуации. В «Напарнике» Шурик сражается с хулиганом Верзилой; в «Наваждении» весьма оригинальным способом готовится к экзамену; в «Операции «Ы» предотвращает «ограбление века», на которое идет знаменитая тройка - Балбес, Трус и Бывалый.






Качество: BDRip | Sample
Контейнер: AVI
Исхлодник: BD
Видео: XviD, 720x544 (4:3), 1740 kbps, 23,976 fps, 0,185 bpp
Аудио: AC3 / 5.1 / 48 kHz / 448 kbps / 16 bit



General
Complete name : D:Операция.Ы.1965.BDRip.[Youtracker].by.Дядя_Лёша.avi
Format : AVI
Format/Info : Audio Video Interleave
File size : 1.45 GiB
Duration : 1h 34mn
Overall bit rate : 2 198 Kbps
Movie name : Операция.Ы.1965.BDRip.[Youtracker].by.Дядя_Лёша
Director : Дядя_Лёша
Writing application : VirtualDubMod 1.5.10.3 | www.virtualdub-fr.org || (build 2550/release)
Copyright : Youtracker

Video
ID : 0
Format : MPEG-4 Visual
Format profile : Advanced Simple@L5
Format settings, BVOP : 2
Format settings, QPel : No
Format settings, GMC : No warppoints
Format settings, Matrix : Custom
Codec ID : XVID
Codec ID/Hint : XviD
Duration : 1h 34mn
Bit rate : 1 740 Kbps
Width : 720 pixels
Height : 544 pixels
Display aspect ratio : 4:3
Frame rate : 23.976 fps
Color space : YUV
Chroma subsampling : 4:2:0
Bit depth : 8 bits
Scan type : Progressive
Compression mode : Lossy
Bits/(Pixel*Frame) : 0.185
Stream size : 1.15 GiB (79%)
Writing library : XviD 73

Audio
ID : 1
Format : AC-3
Format/Info : Audio Coding 3
Mode extension : CM (complete main)
Codec ID : 2000
Duration : 1h 34mn
Bit rate mode : Constant
Bit rate : 448 Kbps
Channel(s) : 6 channels
Channel positions : Front: L C R, Side: L R, LFE
Sampling rate : 48.0 KHz
Bit depth : 16 bits
Compression mode : Lossy
Stream size : 303 MiB (20%)
Alignment : Split accross interleaves
Interleave, duration : 42 ms (1.00 video frame)
Interleave, preload duration : 500 ms


Раздача от:



   Похожие торренты   Торрент   Размер 
В этой теме нет новых непрочитанных сообщений. Операция «Ы» и другие приключения Шурика (1965) BDRip от Youtracker

197 | 18

745.13 МБ

В этой теме нет новых непрочитанных сообщений. Операция «Ы» и другие приключения Шурика (1965) BDRip-AVC от R.G. HD-Films | 60 fps

615 | 46

2.87 ГБ

В этой теме нет новых непрочитанных сообщений. Операция «Ы» и другие приключения Шурика (1965) BDRip 1080p

466 | 34

4.37 ГБ

В этой теме нет новых непрочитанных сообщений. Операция «Ы» и другие приключения Шурика (1965) BDRip от HQCLUB

1030 | 61

1.45 ГБ

В этой теме нет новых непрочитанных сообщений. Операция «Ы» и другие приключения Шурика (1965) BDRip-AVC от R.G. 25 Кадр

127 | 12

2.18 ГБ

В этой теме нет новых непрочитанных сообщений. Операция «Ы» и другие приключения Шурика (1965) BDRip от HQ-ViDEO

1212 | 51

1.45 ГБ

В этой теме нет новых непрочитанных сообщений. Операция «Ы» и другие приключения Шурика (1965) BDRip 1080p

166 | 20

7.73 ГБ




Вы не можете начинать темы
Вы не можете отвечать на сообщения
Вы не можете редактировать свои сообщения
Вы не можете удалять свои сообщения
Вы не можете добавлять вложения

Перейти:  
Для Мосгорсуда, Роскомнадзора и рекламодателей: mosgorsud-torrent[собачка]yandex.ru
 Вход
ppkBB3cker v.2 © 2008-2014 @ PPK
[ Time : 0.059s | 14 Queries | GZIP : Off ]

Торрент трекер RUTOR.IN, Не можете зайти на rutor.org? Какой новый адрес рутор? Какое зеркало рутор? Не работает rutor.org и зеркала? Тогда наш торрент специально для вас. Rutor.in неофициальное зеркало rutor. В случае если у Вас заблокирован rutor или вдруг Вы не можете на него зайти, то Вы без труда сможете скачать бесплатно и без рекламы последние новинки кино, игр, сериалов и прочего у нас, на Rutor.in. Не нужно использовать прокси, чтобы зайти на рутор, достаточно воспользоваться нашим ресурсом. Все новые фильмы, игры, сериалы, книги и музыка за 2013 и 2014 годы через торрент бесплатно. Скачивайте фильмы в хорошем качестве, игры для пк, xbox, playstation без регистрации. У нас вы найдете новые Зарубежные сериалы и Русские сериалы 2013, 2014, 2015 годов. Оставайтесь с нами, качайте любимые фильмы, игры, сериалы, книги и музыку.