img image001 image001 image001 image001 image001 image001 image001 image001 image001 image001 image001 image001 image001 image001 image001

Planets Sun Sun Sun
Статистика раздачи
Автор: Снежана | Размер: 745.13 МБ | Добавлен: 24 июл 2013
Раздают: 197    Качают: 18
Скачать торрент
Скачать торрент
Описание торрента

СообщениеДобавлено: 24 июл 2013 

#77

Страна: СССР
Жанр: мелодрама, комедия, криминалслова
Год выпуска: 1965

Продолжительность: 01:34:33


Перевод: Не требуется

Режиссер: Леонид Гайдай

В ролях:
Александр Демьяненко (Шурик), Наталья Селезнёва (Лида, новелла «Наваждение»), Алексей Смирнов (верзила, новелла «Напарник» / недовольный покупатель, новелла «Операция «Ы»), Юрий Никулин (Балбес, новелла «Операция «Ы»), Евгений Моргунов (Бывалый, новелла «Операция «Ы»), Георгий Вицин (Трус, новелла «Операция «Ы»), Михаил Пуговкин (прораб, новелла «Напарник»), Виктор Павлов (Дуб, новелла «Наваждение»), Владимир Басов (суровый милиционер, новелла «Напарник»), Рина Зеленая (возмущённая пассажирка, новелла «Напарник»), Виктор Уральский (повар, новелла «Напарник»), Георгий Ахундов (лысый пассажир в автобусе № 13, новелла «Напарник»)


Описание: Фильм состоит из трех новелл, объединенных фигурой главного героя Шурика, попадающего в самые невероятные ситуации. В «Напарнике» Шурик сражается с хулиганом Верзилой; в «Наваждении» весьма оригинальным способом готовится к экзамену; в «Операции «Ы» предотвращает «ограбление века», на которое идет знаменитая тройка - Балбес, Трус и Бывалый.






Качество: BDRip | Sample
Контейнер: AVI
Исходник: BD
Видео: XviD, 720x544 (4:3), 964 kbps, 23,976 fps, 0,103 bpp
Аудио: MP3 / 2.0 / 48 kHz / 128 kbps /



General
Complete name : D:Операция.Ы.1965.BDRip745.[Youtracker].by.Дядя_Лёша.avi
Format : AVI
Format/Info : Audio Video Interleave
File size : 745 MiB
Duration : 1h 34mn
Overall bit rate : 1 102 Kbps
Movie name : Операция.Ы.1965.BDRip745.[Youtracker].by.Дядя_Лёша
Director : Дядя_Лёша
Writing application : VirtualDubMod 1.5.10.3 | www.virtualdub-fr.org || (build 2550/release)
Copyright : Youtracker

Video
ID : 0
Format : MPEG-4 Visual
Format profile : Advanced Simple@L5
Format settings, BVOP : 2
Format settings, QPel : No
Format settings, GMC : No warppoints
Format settings, Matrix : Custom
Codec ID : XVID
Codec ID/Hint : XviD
Duration : 1h 34mn
Bit rate : 964 Kbps
Width : 720 pixels
Height : 544 pixels
Display aspect ratio : 4:3
Frame rate : 23.976 fps
Color space : YUV
Chroma subsampling : 4:2:0
Bit depth : 8 bits
Scan type : Progressive
Compression mode : Lossy
Bits/(Pixel*Frame) : 0.103
Stream size : 652 MiB (88%)
Writing library : XviD 73

Audio
ID : 1
Format : MPEG Audio
Format version : Version 1
Format profile : Layer 3
Codec ID : 55
Codec ID/Hint : MP3
Duration : 1h 34mn
Bit rate mode : Constant
Bit rate : 128 Kbps
Channel(s) : 2 channels
Sampling rate : 48.0 KHz
Compression mode : Lossy
Stream size : 86.6 MiB (12%)
Alignment : Aligned on interleaves
Interleave, duration : 42 ms (1.00 video frame)
Interleave, preload duration : 504 ms
Writing library : LAME3.99r
Encoding settings : -m s -V 4 -q 2 -lowpass 17 -b 128


Раздача от:



   Похожие торренты   Торрент   Размер 
В этой теме нет новых непрочитанных сообщений. Операция «Ы» и другие приключения Шурика (1965) BDRip от Youtracker

78 | 11

1.45 ГБ

В этой теме нет новых непрочитанных сообщений. Операция «Ы» и другие приключения Шурика (1965) BDRip-AVC от MediaClub

29 | 8

1.78 ГБ

В этой теме нет новых непрочитанных сообщений. Операция «Ы» и другие приключения Шурика (1965) BDRip 1080p

466 | 34

4.37 ГБ

В этой теме нет новых непрочитанных сообщений. Операция «Ы» и другие приключения Шурика (1965) BDRip-AVC от R.G. HD-Films | 60 fps

615 | 46

2.87 ГБ

В этой теме нет новых непрочитанных сообщений. Операция «Ы» и другие приключения Шурика (1965) BDRip-AVC от R.G. 25 Кадр

127 | 12

2.18 ГБ

В этой теме нет новых непрочитанных сообщений. Операция «Ы» и другие приключения Шурика (1965) BDRip от HQ-ViDEO

1212 | 51

1.45 ГБ

В этой теме нет новых непрочитанных сообщений. Операция «Ы» и другие приключения Шурика (1965) BDRip от HQCLUB

1030 | 61

1.45 ГБ




Вы не можете начинать темы
Вы не можете отвечать на сообщения
Вы не можете редактировать свои сообщения
Вы не можете удалять свои сообщения
Вы не можете добавлять вложения

Перейти:  
Для Мосгорсуда, Роскомнадзора и рекламодателей: mosgorsud-torrent[собачка]yandex.ru
 Вход
ppkBB3cker v.2 © 2008-2014 @ PPK
[ Time : 0.038s | 15 Queries | GZIP : Off ]

cron