img image001 image001 image001 image001 image001 image001 image001 image001 image001 image001 image001 image001 image001 image001 image001 image001

Planets Sun Sun Sun
Статистика раздачи
Автор: Снежана | Размер: 4.35 ГБ | Добавлен: 24 июл 2013
Раздают: 6    Качают: 2
Скачать торрент
Скачать торрент
Описание торрента

СообщениеДобавлено: 24 июл 2013 

#77

Информация о фильме
Оригинальное название: Сомнамбула
Год выпуска: 2013
Жанр: Триллер, драма
Выпущено: Россия, LeRêve
Режиссер: Алексей Смирнов (III)
В ролях: Сергей Апрельский, Андрей Дементьев, Мария Ясная, Александр Златопольский, Марина Гапченко, Георгий Колтушкин, Сергей Ковалёв, Николай Михайлов, Вера Сибирёва, Мария Ясная

О фильме: Фильм основан на истории произошедшей в Интернате для детей сирот в Воронежской области, куда в 1993 году поступил 7-ми летний Андрей Яковлев. Внимание всего Интерната к мальчику приковали странные события, которые происходили с ним почти каждую ночь. Утром на теле мальчика появлялись ссадины, и царапины. Охрана патрулировала по корпусу каждый час, ночные дежурные не сводили с мальчика глаз — но так ничего и не выяснили. 3 августа 1993 года в спальнях интерната установили камеры видеонаблюдения. То, что запечатлели камеры шокировало сотрудников Интерната и привлекло внимание спецслужб. С виду обычный ребенок, обладающий множеством талантов и перспектив на будущее, поневоле создал огромный ажиотаж вокруг себя, а некоторые факты из его биографии были засекречены. В основу фильма легли секретные файлы, кадры камер видеонаблюдения датированные 1993 годом, а также свидетельства очевидцев



Меню: на русском языке, статичное, озвученное

Тип релиза: DVD5 (Сжатый)
Контейнер: DVD-Video

Видео: PAL 16:9 (720x576) VBR Auto Letterboxed; 25,000 fps; 7520 kbps
Аудио: Russian (Dolby AC3, 6 ch, 448 Кбит/сек, 48,0 КГц)

Семпл

Общее
Полное имя : F:Somnambula.2012.DVD5VIDEO_TSVTS_13_2.VOB
Формат : MPEG-PS
Размер файла : 1024 Мбайт
Продолжительность : 17 м.
Общий поток : 8130 Кбит/сек

Видео
Идентификатор : 224 (0xE0)
Формат : MPEG Video
Версия формата : Version 2
Профиль формата : Main@Main
Параметр BVOP формата : Да
Параметр матрицы формата : По умолчанию
Параметры GOP формата : M=3, N=12
Продолжительность : 17 м.
Вид битрейта : Переменный
Битрейт : 7520 Кбит/сек
Номинальный битрейт : 9000 Кбит/сек
Ширина : 720 пикс.
Высота : 576 пикс.
Соотношение сторон : 16:9
Частота кадров : 25,000 кадр/сек
Стандарт вещания : PAL
Цветовое пространство : YUV
Подвыборка цветности : 4:2:0
Битовая глубина : 8 бит
Тип развёртки : Прогрессивная
Порядок развёртки : Нижнее поле первое
Метод сжатия : С потерями
Бит/(Пиксели*Кадры) : 0.725
Размер потока : 947 Мбайт (92%)

Аудио
Идентификатор : 189 (0xBD)-128 (0x80)
Формат : AC-3
Формат/Информация : Audio Coding 3
Расширение режима : CM (complete main)
Режим смешивания : DVD-Video
Продолжительность : 17 м.
Вид битрейта : Постоянный
Битрейт : 448 Кбит/сек
Каналы : 6 каналов
Расположение каналов : Front: L C R, Side: L R, LFE
Частота : 48,0 КГц
Битовая глубина : 16 бит
Метод сжатия : С потерями
Задержка видео : -528 мс.
Размер потока : 56,4 Мбайт (6%)

Меню

[align=center] [/align]

[align=center] [/align]



   Похожие торренты   Торрент   Размер 
В этой теме нет новых непрочитанных сообщений. Суррогат / The Sessions (2012) DVD5 от New-Team | P | сжатый

5 | 8

4.37 ГБ

В этой теме нет новых непрочитанных сообщений. София Прекрасная / Sofia the First [01-05 из 45] (2012) DVD5 от New-Team | D | Сжатый

28 | 4

4.38 ГБ

В этой теме нет новых непрочитанных сообщений. Резня зомби / Zombie Massacre (2012) DVD5 от New-Team | D | сжатый

9 | 22

4.28 ГБ

В этой теме нет новых непрочитанных сообщений. На грани сомнения / Suspension of Disbelief (2012) DVD5 от New-Team | P | сжатый

3 | 2

4.37 ГБ

В этой теме нет новых непрочитанных сообщений. Сомнамбула (2012) WEB-DLRip

18 | 2

1.37 ГБ

В этой теме нет новых непрочитанных сообщений. София Прекрасная: История принцессы / Sofia the First: Once Upon a Princess (2012) DVD5 от New-Team | D | Сжатый

49 | 18

4.23 ГБ

В этой теме нет новых непрочитанных сообщений. Девушка и смерть / Het Meisje en de Dood / The Girl and Death (2012) DVD5 от New-Team | сжатый

2 | 3

4.37 ГБ




Вы не можете начинать темы
Вы не можете отвечать на сообщения
Вы не можете редактировать свои сообщения
Вы не можете удалять свои сообщения
Вы не можете добавлять вложения

Перейти:  
 Вход
ppkBB3cker v.2 © 2008-2014 @ PPK
[ Time : 0.038s | 17 Queries | GZIP : Off ]

cron