img image001 image001 image001 image001 image001 image001 image001 image001 image001 image001 image001 image001 image001 image001 image001

Planets Sun Sun Sun
Статистика раздачи
Автор: Снежана | Размер: 2.89 ГБ | Добавлен: 24 июл 2013
Раздают: 13    Качают: 2
Скачать торрент
Скачать торрент
Описание торрента

СообщениеДобавлено: 24 июл 2013 

Жанр: боевик
Год выпуска: 2008
Продолжительность: 01:53:30

Режиссёр: Олег Погодин

В ролях: Владимир Епифанцев (Егор Кремнев), Сергей Астахов (Михаил Шеринг), Ольга Фадеева (Надежда), Юрий Соломин (Генерал Рокотов), Владимир Стеклов (Генерал Лямин), Сергей Векслер (Полковник Уколов), Владимир Турчинский (Солодов), Тагир Рахимов (Полковник Козырев), Александр Хованский (Борис Гехт), Кит Маллет (Рауль), Игорь Якимов (Человек со шрамом), Дмитрий Добужинский (Пестренький)

Описание: Спецагент Кремнев должен доставить одного человека с Мальты в Россию. Человеком этим оказывается помощник беглого олигарха, обладающий секретной информацией. Кремнева хотят остановить все, в том числе и предатели из российских спецслужб, а его подопечный, к тому же, в Россию возвращаться совершенно не желает.


Сэмпл: http://multi-up.com/866916

Качество видео: DVB
Формат видео: MPEG-PS

Видео: MPEG2 Video, 720x576 (4:3), 25 fps, 3386 Kbps, 0.33 bit/pixel
Аудио: MPEG Audio, 48 kHz, 2 ch, 192 kbps

General
Complete name : C:Непобедимый_2008_DVB.mpg
Format : MPEG-PS
File size : 2.89 GiB
Duration : 1h 53mn
Overall bit rate mode : Variable
Overall bit rate : 3 650 Kbps

Video
ID : 224 (0xE0)
Format : MPEG Video
Format version : Version 2
Format profile : Main@Main
Format settings, BVOP : Yes
Format settings, Matrix : Custom
Format settings, GOP : M=3, N=12
Duration : 1h 53mn
Bit rate mode : Variable
Bit rate : 3 386 Kbps
Maximum bit rate : 15.0 Mbps
Width : 720 pixels
Height : 576 pixels
Display aspect ratio : 4:3
Frame rate : 25.000 fps
Standard : PAL
Color space : YUV
Chroma subsampling : 4:2:0
Bit depth : 8 bits
Scan type : Interlaced
Scan order : Top Field First
Compression mode : Lossy
Bits/(Pixel*Frame) : 0.327
Time code of first frame : 00:00:00:00
Time code source : Group of pictures header
Stream size : 2.68 GiB (93%)

Audio
ID : 192 (0xC0)
Format : MPEG Audio
Format version : Version 1
Format profile : Layer 2
Duration : 1h 53mn
Bit rate mode : Constant
Bit rate : 192 Kbps
Channel(s) : 2 channels
Sampling rate : 48.0 KHz
Compression mode : Lossy
Stream size : 156 MiB (5%)





   Похожие торренты   Торрент   Размер 
В этой теме нет новых непрочитанных сообщений. Непобедимый / Man of East (2008) Blu-Ray

1 | 5

22.34 ГБ

В этой теме нет новых непрочитанных сообщений. Непобедимый (2008) DVDRip-AVC

145 | 21

3.84 ГБ

В этой теме нет новых непрочитанных сообщений. Непобедимый (2008) DVDRip

52 | 14

1.37 ГБ

В этой теме нет новых непрочитанных сообщений. Непобедимый (2008) DVDRip от Kinobomond

19 | 8

1.46 ГБ

В этой теме нет новых непрочитанных сообщений. Непобедимый (2008) BDRip от Shevon

181 | 18

1.46 ГБ

В этой теме нет новых непрочитанных сообщений. Непобедимый (2008) BDRip-AVC от 0ptimus

185 | 19

1.67 ГБ

В этой теме нет новых непрочитанных сообщений. Непобедимый (2008) BDRip 1080p

103 | 9

4.38 ГБ




Вы не можете начинать темы
Вы не можете отвечать на сообщения
Вы не можете редактировать свои сообщения
Вы не можете удалять свои сообщения
Вы не можете добавлять вложения

Перейти:  
Для Мосгорсуда, Роскомнадзора и рекламодателей: mosgorsud-torrent[собачка]yandex.ru
 Вход
ppkBB3cker v.2 © 2008-2014 @ PPK
[ Time : 0.054s | 14 Queries | GZIP : Off ]

Торрент трекер RUTOR.IN, Не можете зайти на rutor.org? Какой новый адрес рутор? Какое зеркало рутор? Не работает rutor.org и зеркала? Тогда наш торрент специально для вас. Rutor.in неофициальное зеркало rutor. В случае если у Вас заблокирован rutor или вдруг Вы не можете на него зайти, то Вы без труда сможете скачать бесплатно и без рекламы последние новинки кино, игр, сериалов и прочего у нас, на Rutor.in. Не нужно использовать прокси, чтобы зайти на рутор, достаточно воспользоваться нашим ресурсом. Все новые фильмы, игры, сериалы, книги и музыка за 2013 и 2014 годы через торрент бесплатно. Скачивайте фильмы в хорошем качестве, игры для пк, xbox, playstation без регистрации. У нас вы найдете новые Зарубежные сериалы и Русские сериалы 2013, 2014, 2015 годов. Оставайтесь с нами, качайте любимые фильмы, игры, сериалы, книги и музыку.