img image001 image001 image001 image001 image001 image001 image001 image001 image001 image001 image001 image001 image001 image001 image001

Planets Sun Sun Sun
Статистика раздачи
Автор: Снежана | Размер: 3.55 ГБ | Добавлен: 24 июл 2013
Раздают: 4    Качают: 2
Скачать торрент
Скачать торрент
Описание торрента

СообщениеДобавлено: 24 июл 2013 

#77

Жанр: драма
Год выпуска: 2012
Продолжительность: 02:19.27

Режиссёр: Игорь Черницкий

В ролях: Анатолий Просалов, Алёна Бабенко, Богдан Ступка, Андрей Харитонов, Владимир Гостюхин, Александр Михайлов, Игорь Черницкий, Евгения Дмитриева, Георгий Штиль, Захар Хунгуреев, Дмитрий Муляр, Юрий Грубник, Владимир Овчаров, Владимир Капустин, Игорь Павлов, Тимофей Ермолин, Григорий Антипенко, Олег Долин, Денис Надточий, Елизавета Боярская, Сергей Соболев, Сергей Ражук, Владимир Жеребцов, Антон Сёмкин, Наталья Тетенова, Амбарцум Симонянц, Сергей Потапов, Людмила Мальцева, Светлана Суханова, Анатолий Басин, Николай Федорцов, Александр Плужник, Вадим Сквирский, Артем Кондрашов, Ирина Барская, Даша Злыгостева, Дарья Барская

Описание: Подпоручик Ромашов еще ничего не успел совершить в жизни, не сделал военной карьеры. Но это не слабый, мятущийся, мягкотелый интеллигент, а, как убедительно показано в картине, незаурядный человек, яркая, талантливая личность. Он поднимает голос в защиту бесправного солдата, выступает против консервативных порядков в армии, защищает честь любимой женщины и готов, если надо, умереть за нее...

Доп. информация: Полнометражный художественный фильм по мотивам повести А.И.Куприна "Поединок".



Семпл: http://multi-up.com/866398

Качество видео: DVB
Формат видео: MPEG-PS

Видео: MPEG2 Video, 720x576 (4:3), 25 fps, 3384 Kbps, 0.33 bit/pixel
Аудио: MPEG Audio, 48 kHz, 2 ch, 192 kbps
General
Complete name : D:Подпоручикъ Ромашовъ_2012_DVB.mpg
Format : MPEG-PS
File size : 3.55 GiB
Duration : 2h 19mn
Overall bit rate mode : Variable
Overall bit rate : 3 648 Kbps

Video
ID : 224 (0xE0)
Format : MPEG Video
Format version : Version 2
Format profile : Main@Main
Format settings, BVOP : Yes
Format settings, Matrix : Custom
Format settings, GOP : M=3, N=12
Duration : 2h 19mn
Bit rate mode : Variable
Bit rate : 3 384 Kbps
Maximum bit rate : 15.0 Mbps
Width : 720 pixels
Height : 576 pixels
Display aspect ratio : 4:3
Frame rate : 25.000 fps
Standard : PAL
Color space : YUV
Chroma subsampling : 4:2:0
Bit depth : 8 bits
Scan type : Interlaced
Scan order : Top Field First
Compression mode : Lossy
Bits/(Pixel*Frame) : 0.326
Time code of first frame : 00:00:00:00
Time code source : Group of pictures header
Stream size : 3.30 GiB (93%)

Audio
ID : 192 (0xC0)
Format : MPEG Audio
Format version : Version 1
Format profile : Layer 2
Duration : 2h 19mn
Bit rate mode : Constant
Bit rate : 192 Kbps
Channel(s) : 2 channels
Sampling rate : 48.0 KHz
Compression mode : Lossy
Stream size : 192 MiB (5%)





   Похожие торренты   Торрент   Размер 
В этой теме нет новых непрочитанных сообщений. Подпоручик Ромашов (2012) SATRip от КинозалSAT

4 | 2

2.15 ГБ

В этой теме нет новых непрочитанных сообщений. Евровидение 2012 / Eurovision Song Contest 2012 Grand Final (2012) HDTVRip 1080p от BT-Club

0 | 1

5.22 ГБ

В этой теме нет новых непрочитанных сообщений. ХII Национальный фестиваль белорусской песни и поэзии Молодечно-2012 / Маладзечна-2012 (2012) SATRip от AND01AND

0 | 2

4.97 ГБ

В этой теме нет новых непрочитанных сообщений. Легкая атлетика. Бриллиантовая Лига 2012 / Diamond League 2012. Этап 3. Рим (Италия) (2012) SATRip

0 | 9

1.76 ГБ

В этой теме нет новых непрочитанных сообщений. Чемпионат мира по ралли 2012 / World Rally Championship (WRC) 2012. 11/13. Франция. Обзор (2012) DVBRip

0 | 4

7.41 ГБ

В этой теме нет новых непрочитанных сообщений. Легкая атлетика. Бриллиантовая Лига 2012 / Diamond League 2012. Этап 6. Нью-Йорк (США) (2012) SATRip

0 | 2

1.62 ГБ

В этой теме нет новых непрочитанных сообщений. Легкая атлетика. Бриллиантовая Лига 2012 / Diamond League 2012. Этап 4. Юджин (США) (2012) SATRip

26 | 6

1.71 ГБ




Вы не можете начинать темы
Вы не можете отвечать на сообщения
Вы не можете редактировать свои сообщения
Вы не можете удалять свои сообщения
Вы не можете добавлять вложения

Перейти:  
Для Мосгорсуда, Роскомнадзора и рекламодателей: mosgorsud-torrent[собачка]yandex.ru
 Вход
ppkBB3cker v.2 © 2008-2014 @ PPK
[ Time : 0.031s | 17 Queries | GZIP : Off ]

Торрент трекер RUTOR.IN, Не можете зайти на rutor.org? Какой новый адрес рутор? Какое зеркало рутор? Не работает rutor.org и зеркала? Тогда наш торрент специально для вас. Rutor.in неофициальное зеркало rutor. В случае если у Вас заблокирован rutor или вдруг Вы не можете на него зайти, то Вы без труда сможете скачать бесплатно и без рекламы последние новинки кино, игр, сериалов и прочего у нас, на Rutor.in. Не нужно использовать прокси, чтобы зайти на рутор, достаточно воспользоваться нашим ресурсом. Все новые фильмы, игры, сериалы, книги и музыка за 2013 и 2014 годы через торрент бесплатно. Скачивайте фильмы в хорошем качестве, игры для пк, xbox, playstation без регистрации. У нас вы найдете новые Зарубежные сериалы и Русские сериалы 2013, 2014, 2015 годов. Оставайтесь с нами, качайте любимые фильмы, игры, сериалы, книги и музыку.