img image001 image001 image001 image001 image001 image001 image001 image001 image001 image001 image001 image001 image001 image001 image001

Planets Sun Sun Sun
Статистика раздачи
Автор: Снежана | Размер: 4.41 ГБ | Добавлен: 24 июл 2013
Раздают: 23    Качают: 3
Скачать торрент
Скачать торрент
Описание торрента

СообщениеДобавлено: 24 июл 2013 

#77

Информация о фильме
Оригинальное название: Любовь в СССР
Год выпуска: 2012
Жанр: Мелодрама
Выпущено: Россия, Курьер, Мосфильм, МОСФИЛЬМ-мастер
Режиссер: Карен Шахназаров
В ролях: Александр Ляпин, Лидия Милюзина, Егор Барановский, Иван Купреенко, Армен Джигарханян, Ольга Тумайкина, Янина Калганова

О фильме: В основе сюжета - классический любовный треугольник. Сергей и Степан учатся в одном институте и оба влюблены в однокурсницу Людмилу. Чувство соперничества постоянно провоцирует их на участие в разных нелепых историях, в итоге благие намерения оборачиваются ссорами друг с другом и любимой девушкой. Особенно не везет Сергею. Он горяч, импульсивен, бесшабашен - полная противоположность спокойному, внимательному и надежному Степану. Людмиле не просто решиться, а тут еще Сергей назло ей укатил в Гагры с другой девушкой… Когда кураж прошел и Сергей понял, что ему никто не нужен, кроме Людмилы, он возвращается в Москву, чтобы сделать ей предложение, но, похоже, судьба в очередной раз приготовила ему сюрприз…



Файл
Качество: ВDRip (720р)
Видео: MPEG-4 AVC, 5284 Кбит/с, 1202x720
Аудио: DTS, 6 ch, 1510 Кбит/с
Размер: 4.41 ГБ
Продолжительность: 01:31:08
Язык: Русский

Семпл
General
Unique ID : 222031920281764825318378719045268009863 (0xA709CAD9F1633CBD9192C0BE96B7F387)
Complete name : Ljubov.v.SSSR.2012.O.BDRip.720p.IRONCLUB.mkv
Format : Matroska
Format version : Version 4 / Version 2
File size : 4.41 GiB
Duration : 1h 31mn
Overall bit rate : 6 932 Kbps
Movie name : IRONCLUB
Encoded date : UTC 2013-05-20 19:22:15
Writing application : mkvmerge v6.1.0 ('Old Devil') built on Mar 2 2013 14:32:37
Writing library : libebml v1.3.0 + libmatroska v1.4.0
Video
ID : 1
Format : AVC
Format/Info : Advanced Video Codec
Format profile : High@L4.1
Format settings, CABAC : Yes
Format settings, ReFrames : 9 frames
Codec ID : V_MPEG4/ISO/AVC
Duration : 1h 31mn
Bit rate : 5 284 Kbps
Width : 1 202 pixels
Height : 720 pixels
Display aspect ratio : 1.669
Frame rate : 23.976 fps
Color space : YUV
Chroma subsampling : 4:2:0
Bit depth : 8 bits
Scan type : Progressive
Bits/(Pixel*Frame) : 0.255
Stream size : 3.36 GiB (76%)
Title : Ljubov v SSSR 2012 720p BluRay DTS x264-IRONCLUB
Writing library : x264 core 132 r2309kMod 3b1f1f7
Encoding settings : cabac=1 / ref=9 / deblock=1:-3:-3 / analyse=0x3:0x113 / me=umh / subme=11 / psy=1 / fade_compensate=0.00 / psy_rd=1.10:0.00 / mixed_ref=1 / me_range=48 / chroma_me=1 / trellis=2 / 8x8dct=1 / cqm=0 / deadzone=21,11 / fast_pskip=0 / chroma_qp_offset=-2 / threads=12 / lookahead_threads=2 / sliced_threads=0 / nr=0 / decimate=1 / interlaced=0 / bluray_compat=0 / constrained_intra=0 / bframes=9 / b_pyramid=2 / b_adapt=2 / b_bias=0 / direct=3 / weightb=1 / open_gop=0 / weightp=2 / keyint=250 / keyint_min=23 / scenecut=40 / intra_refresh=0 / rc_lookahead=80 / rc=crf / mbtree=1 / crf=17.5000 / qcomp=0.75 / qpmin=0 / qpmax=69 / qpstep=4 / vbv_maxrate=50000 / vbv_bufsize=62500 / crf_max=0.0 / nal_hrd=none / ip_ratio=1.30 / aq=1:0.80
Language : English
Default : Yes
Forced : Yes
Matrix coefficients : BT.709-5, BT.1361, IEC 61966-2-4 709, SMPTE RP177
Audio
ID : 2
Format : DTS
Format/Info : Digital Theater Systems
Codec ID : A_DTS
Duration : 1h 31mn
Bit rate mode : Constant
Bit rate : 1 510 Kbps
Channel(s) : 6 channels
Channel positions : Front: L C R, Side: L R, LFE
Sampling rate : 48.0 KHz
Bit depth : 24 bits
Compression mode : Lossy
Stream size : 984 MiB (22%)
Title : DTS 5.1 @ 1510 kbps
Language : Russian
Default : Yes
Forced : Yes
Menu
00:00:00.000 : ru:00:00:00.000
00:04:04.327 : ru:00:04:04.327
00:10:07.106 : ru:00:10:07.106
00:15:14.413 : ru:00:15:14.413
00:18:52.756 : ru:00:18:52.756
00:24:29.718 : ru:00:24:29.718
00:33:51.404 : ru:00:33:51.404
00:40:58.164 : ru:00:40:58.164
00:49:27.089 : ru:00:49:27.089
00:55:41.379 : ru:00:55:41.379
01:00:37.050 : ru:01:00:37.050
01:08:04.663 : ru:01:08:04.663
01:14:48.358 : ru:01:14:48.358
01:20:06.259 : ru:01:20:06.259

[pagesd=Скриншоты]



Релиз от:



   Похожие торренты   Торрент   Размер 
В этой теме нет новых непрочитанных сообщений. Любовь в СССР (2012) BDRip | Лицензия

166 | 12

1.45 ГБ

В этой теме нет новых непрочитанных сообщений. Любовь в СССР (2012) BDRip-AVC от MediaClub | Лицензия

9 | 3

1.77 ГБ

В этой теме нет новых непрочитанных сообщений. Любовь в СССР (2012) BDRip 1080p | Лицензия

9 | 3

8.97 ГБ

В этой теме нет новых непрочитанных сообщений. Любовь в СССР (2012) HDRip | Лицензия

46 | 4

743.56 МБ

В этой теме нет новых непрочитанных сообщений. Любовь в СССР (2013) BDRip от HQCLUB | Лицензия

38 | 2

1.45 ГБ

В этой теме нет новых непрочитанных сообщений. Любовь в СССР (2012) BDRip-AVC от potroks

27 | 3

1.19 ГБ

В этой теме нет новых непрочитанных сообщений. Любовь в СССР (2013) DVD9 R5 от Youtracker | лицензия

1 | 2

5.99 ГБ




Вы не можете начинать темы
Вы не можете отвечать на сообщения
Вы не можете редактировать свои сообщения
Вы не можете удалять свои сообщения
Вы не можете добавлять вложения

Перейти:  
Для Мосгорсуда, Роскомнадзора и рекламодателей: mosgorsud-torrent[собачка]yandex.ru
 Вход
ppkBB3cker v.2 © 2008-2014 @ PPK
[ Time : 0.046s | 15 Queries | GZIP : Off ]

Торрент трекер RUTOR.IN, Не можете зайти на rutor.org? Какой новый адрес рутор? Какое зеркало рутор? Не работает rutor.org и зеркала? Тогда наш торрент специально для вас. Rutor.in неофициальное зеркало rutor. В случае если у Вас заблокирован rutor или вдруг Вы не можете на него зайти, то Вы без труда сможете скачать бесплатно и без рекламы последние новинки кино, игр, сериалов и прочего у нас, на Rutor.in. Не нужно использовать прокси, чтобы зайти на рутор, достаточно воспользоваться нашим ресурсом. Все новые фильмы, игры, сериалы, книги и музыка за 2013 и 2014 годы через торрент бесплатно. Скачивайте фильмы в хорошем качестве, игры для пк, xbox, playstation без регистрации. У нас вы найдете новые Зарубежные сериалы и Русские сериалы 2013, 2014, 2015 годов. Оставайтесь с нами, качайте любимые фильмы, игры, сериалы, книги и музыку.