img image001 image001 image001 image001 image001 image001 image001 image001 image001 image001 image001 image001 image001 image001 image001

Planets Sun Sun Sun
Статистика раздачи
Автор: Снежана | Размер: 7.76 ГБ | Добавлен: 24 июл 2013
Раздают: 118    Качают: 25
Скачать торрент
Скачать торрент
Описание торрента

СообщениеДобавлено: 24 июл 2013 

#77

Информация о фильме
Название: Добро пожаловать, или Посторонним вход воспрещен
Год выхода: 1964
Жанр: комедия, семейный
Режиссер: Элем Климов
В ролях: Виктор Косых, Евгений Евстигнеев, Арина Алейникова, Илья Рутберг, Лидия Смирнова, Алексей Смирнов, Нина Шацкая, Лидия Волкова, Татьяна Барышева, Александр Байков

О фильме: Пионер Костя Иночкин, будучи в пионерском лагере, переплыл реку и оказался на запретной для посещений территории, за что и был изгнан его начальником товарищем Дыниным. Не желая доводить бабушку до инфаркта своим досрочным прибытием, мальчик тайно возвращается в лагерь, где пионеры так же тайно содержат его и предпринимают все меры, чтобы не состоялся родительский день. Ведь именно в этот день Костина бабушка заявится в лагерь…



Выпущено: Мосфильм
Продолжительность: 01:13:10
Перевод: Оригинал (лицензия)

Файл
Кодек: x264
Качество: BDRip (источник: Blu-ray Disc)
Видео: 1484x1080 (1,37:1), 23.976 fps, 14.7 Mbps
Аудио: AC-3, 6 ch, 448 kbps
Субтитры: Русские, Английские
Скачать: сэмпл

Скриншоты

Общее
Уникальный идентификатор : 200288568783308653992738125060895749054 (0x96AE2CDAD02A78238803EA63D42133BE)
Полное имя : Dobro.pozhalovat.ili.Postoronnim.vkhod.vospreshchyon.1964.BDRip.1080p.Rus.mkv
Формат : Matroska
Версия формата : Version 2
Размер файла : 7,76 Гбайт
Продолжительность : 1 ч. 13 м.
Общий поток : 15,2 Мбит/сек
Название фильма : Добро пожаловать, или Посторонним вход воспрещен (1964)
Дата кодирования : UTC 2013-05-19 22:53:04
Программа кодирования : mkvmerge v5.8.0 ('No Sleep / Pillow') built on Sep 2 2012 15:37:04
Библиотека кодирования : libebml v1.2.3 + libmatroska v1.3.0

Видео
Идентификатор : 1
Формат : AVC
Формат/Информация : Advanced Video Codec
Профиль формата : High@L4.1
Параметр CABAC формата : Да
Параметр ReFrames формата : 5 кадров
Идентификатор кодека : V_MPEG4/ISO/AVC
Продолжительность : 1 ч. 13 м.
Битрейт : 14,7 Мбит/сек
Ширина : 1484 пикселя
Высота : 1080 пикселей
Соотношение сторон : 1,374
Частота кадров : 23,976 кадра/сек
Цветовое пространство : YUV
Субдискретизация насыщенности : 4:2:0
Битовая глубина : 8 бит
Тип развёртки : Прогрессивная
Бит/(Пиксели*Кадры) : 0.383
Размер потока : 7,37 Гбайт (95%)
Заголовок : Release by AlexKa
Библиотека кодирования : x264 core 132 r2310 76a5c3a
Настройки программы : cabac=1 / ref=5 / deblock=1:-3:-3 / analyse=0x3:0x133 / me=umh / subme=9 / psy=1 / psy_rd=1.00:0.10 / mixed_ref=1 / me_range=32 / chroma_me=1 / trellis=2 / 8x8dct=1 / cqm=0 / deadzone=21,11 / fast_pskip=0 / chroma_qp_offset=0 / threads=12 / lookahead_threads=2 / sliced_threads=0 / nr=0 / decimate=1 / interlaced=0 / bluray_compat=0 / constrained_intra=0 / bframes=7 / b_pyramid=2 / b_adapt=2 / b_bias=0 / direct=3 / weightb=1 / open_gop=0 / weightp=2 / keyint=240 / keyint_min=23 / scenecut=40 / intra_refresh=0 / rc=2pass / mbtree=0 / bitrate=14727 / ratetol=1.0 / qcomp=0.60 / qpmin=0 / qpmax=69 / qpstep=4 / cplxblur=20.0 / qblur=0.5 / ip_ratio=1.40 / pb_ratio=1.30 / aq=1:0.80
Язык : Russian

Аудио
Идентификатор : 2
Формат : AC-3
Формат/Информация : Audio Coding 3
Расширение режима : CM (complete main)
Идентификатор кодека : A_AC3
Продолжительность : 1 ч. 13 м.
Вид битрейта : Постоянный
Битрейт : 448 Кбит/сек
Каналы : 6 каналов
Расположение каналов : Front: L C R, Side: L R, LFE
Частота : 48,0 КГц
Битовая глубина : 16 бит
Метод сжатия : С потерями
Размер потока : 234 Мбайт (3%)
Заголовок : Rus
Язык : Russian

Текст #1
Идентификатор : 3
Формат : UTF-8
Идентификатор кодека : S_TEXT/UTF8
Идентификатор кодека/Информация : UTF-8 Plain Text
Заголовок : Rus
Язык : Russian

Текст #2
Идентификатор : 4
Формат : UTF-8
Идентификатор кодека : S_TEXT/UTF8
Идентификатор кодека/Информация : UTF-8 Plain Text
Заголовок : Eng
Язык : English

Меню
00:00:00.000 : :Chapter 01
00:03:39.636 : :Chapter 02
00:07:41.252 : :Chapter 03
00:13:04.617 : :Chapter 04
00:16:49.591 : :Chapter 05
00:23:13.517 : :Chapter 06
00:26:13.488 : :Chapter 07
00:33:42.437 : :Chapter 08
00:38:29.348 : :Chapter 09
00:42:10.778 : :Chapter 10
00:46:03.093 : :Chapter 11
00:49:15.327 : :Chapter 12
00:57:17.350 : :Chapter 13
01:01:05.662 : :Chapter 14
01:05:37.725 : :Chapter 15
01:13:10.010 : :Chapter 16
x264 [info]: frame I:591 Avg QP:19.89 size:219787
x264 [info]: frame P:20032 Avg QP:22.42 size:126873
x264 [info]: frame B:84642 Avg QP:24.28 size: 63922



   Похожие торренты   Торрент   Размер 
В этой теме нет новых непрочитанных сообщений. Добро пожаловать, или Посторонним вход воспрещен (1964) BDRip 1080p от HDClub

23 | 4

9.91 ГБ

В этой теме нет новых непрочитанных сообщений. Добро пожаловать, или Посторонним вход воспрещен (1964) BDRip-AVC от MediaClub

220 | 10

2.02 ГБ

В этой теме нет новых непрочитанных сообщений. Добро пожаловать, или Посторонним вход воспрещен (1964) BDRip от MediaClub

5 | 2

1.08 ГБ

В этой теме нет новых непрочитанных сообщений. Добро пожаловать, или Посторонним вход воспрещен (1964) BDRip от HQ-ViDEO

766 | 75

1.45 ГБ

В этой теме нет новых непрочитанных сообщений. Добро пожаловать, или Посторонним вход воспрещен (1964) BDRip от HQCLUB

34 | 5

1.09 ГБ

В этой теме нет новых непрочитанных сообщений. Добро пожаловать, или Посторонним вход воспрещен (1964) BDRip 720p от MediaClub

47 | 14

4.22 ГБ

В этой теме нет новых непрочитанных сообщений. Добро пожаловать, или Посторонним вход воспрещен (1964) DVDRip

222 | 3

799.98 МБ




Вы не можете начинать темы
Вы не можете отвечать на сообщения
Вы не можете редактировать свои сообщения
Вы не можете удалять свои сообщения
Вы не можете добавлять вложения

Перейти:  
Для Мосгорсуда, Роскомнадзора и рекламодателей: mosgorsud-torrent[собачка]yandex.ru
 Вход
ppkBB3cker v.2 © 2008-2014 @ PPK
[ Time : 0.510s | 15 Queries | GZIP : Off ]

Торрент трекер RUTOR.IN, Не можете зайти на rutor.org? Какой новый адрес рутор? Какое зеркало рутор? Не работает rutor.org и зеркала? Тогда наш торрент специально для вас. Rutor.in неофициальное зеркало rutor. В случае если у Вас заблокирован rutor или вдруг Вы не можете на него зайти, то Вы без труда сможете скачать бесплатно и без рекламы последние новинки кино, игр, сериалов и прочего у нас, на Rutor.in. Не нужно использовать прокси, чтобы зайти на рутор, достаточно воспользоваться нашим ресурсом. Все новые фильмы, игры, сериалы, книги и музыка за 2013 и 2014 годы через торрент бесплатно. Скачивайте фильмы в хорошем качестве, игры для пк, xbox, playstation без регистрации. У нас вы найдете новые Зарубежные сериалы и Русские сериалы 2013, 2014, 2015 годов. Оставайтесь с нами, качайте любимые фильмы, игры, сериалы, книги и музыку.
cron