img image001 image001 image001 image001 image001 image001 image001 image001 image001 image001 image001 image001 image001 image001 image001

Planets Sun Sun Sun
Статистика раздачи
Автор: Снежана | Размер: 4.37 ГБ | Добавлен: 24 июл 2013
Раздают: 107    Качают: 16
Скачать торрент
Скачать торрент
Описание торрента

СообщениеДобавлено: 24 июл 2013 

#77

Информация о фильме
Оригинальное название: Операция «Ы» и другие приключения Шурика
Год выпуска: 1965
Жанр: Эксцентрическая комедия, мелодрама, криминал
Режиссер: Леонид Гайдай
В ролях: Александр Демьяненко, Алексей Смирнов (I), Наталья Селезнева, Георгий Вицин, Евгений Моргунов, Юрий Никулин, Михаил Пуговкин, Владимир Басов, Владимир Раутбарт, Виктор Павлов, Владимир Владиславский, Мария Кравчуновская, Эммануил Геллер, Рина Зелёная, Виктор Уральский, Георгий Ахундов, Валентина Березуцкая, Светлана Агеева, Валерий Носик, Георгий Георгиу, Людмила Ковалец, Владимир Гуляев, Владимир Удалов, Игорь Суровцев, Нина Делекторская, Иван Турченков, Виктор Гераскин, Елена Судакова, Николай Казаков, Владимир Приходько, Владимир Комаровский, Виктор Зозулин, Сергей Жирнов, Зоя Федорова, Наталья Гицерот

О фильме: Фильм состоит из трех новелл, объединенных фигурой главного героя Шурика, попадающего в самые невероятные ситуации. В «Напарнике» Шурик сражается с хулиганом Верзилой; в «Наваждении» весьма оригинальным способом готовится к экзамену; в «Операции «Ы» предотвращает «ограбление века», на которое идет знаменитая тройка - Балбес, Трус и Бывалый.



Страна: СССР
Студия: Мосфильм
Продолжительность: 01:34:33

Файл
Качество: BDRip (AVC)
Видео: MPEG-4 AVC, 5105 Кбит/c, 946x720, 23.976 кадр/c
Звук: Русский (DTS, 6 ch, 1510 Кбит/c)

Семпл




Общее
Уникальный идентификатор : 229817753306546766343262963548157755908 (0xACE54A0E8C55F49EA523FA98888DC204)
Полное имя : D:Mои раздачиOperaciya.Y.1965.BDRip.(720p)-MediaClub.mkv
Формат : Matroska
Версия формата : Version 2
Размер файла : 4,37 Гбайт
Продолжительность : 1 ч. 34 м.
Общий поток : 6616 Кбит/сек
Название фильма : Операция "Ы" (MediaClub-kaspr)
Дата кодирования : UTC 2013-05-20 08:48:17
Программа кодирования : mkvmerge v5.7.0 ('The Whirlwind') built on Aug 7 2012 14:11:40
Библиотека кодирования : libebml v1.2.3 + libmatroska v1.3.0

Видео
Идентификатор : 1
Формат : AVC
Формат/Информация : Advanced Video Codec
Профиль формата : High@L4.1
Параметр CABAC формата : Да
Параметр ReFrames формата : 8 кадров
Идентификатор кодека : V_MPEG4/ISO/AVC
Продолжительность : 1 ч. 34 м.
Битрейт : 5105 Кбит/сек
Ширина : 946 пикселей
Высота : 720 пикселей
Соотношение сторон : 4:3
Режим частоты кадров : Постоянный
Частота кадров : 23,976 кадра/сек
Цветовое пространство : YUV
Субдискретизация насыщенности : 4:2:0
Битовая глубина : 8 бит
Тип развёртки : Прогрессивная
Бит/(Пиксели*Кадры) : 0.313
Размер потока : 3,29 Гбайт (75%)
Заголовок : Операция "Ы" (MediaClub-kaspr)
Библиотека кодирования : x264 core 130 r2273 b3065e6
Настройки программы : cabac=1 / ref=8 / deblock=1:-3:-3 / analyse=0x3:0x133 / me=umh / subme=11 / psy=1 / psy_rd=1.00:0.10 / mixed_ref=1 / me_range=32 / chroma_me=1 / trellis=2 / 8x8dct=1 / cqm=0 / deadzone=21,11 / fast_pskip=0 / chroma_qp_offset=-3 / threads=12 / lookahead_threads=1 / sliced_threads=0 / nr=0 / decimate=0 / interlaced=0 / bluray_compat=0 / constrained_intra=0 / bframes=6 / b_pyramid=2 / b_adapt=2 / b_bias=0 / direct=3 / weightb=1 / open_gop=0 / weightp=2 / keyint=240 / keyint_min=22 / scenecut=40 / intra_refresh=0 / rc=2pass / mbtree=0 / bitrate=5105 / ratetol=1.0 / qcomp=0.60 / qpmin=0 / qpmax=69 / qpstep=4 / cplxblur=20.0 / qblur=0.5 / ip_ratio=1.40 / pb_ratio=1.30 / aq=1:1.00
Default : Да
Forced : Нет

Аудио
Идентификатор : 2
Формат : DTS
Формат/Информация : Digital Theater Systems
Идентификатор кодека : A_DTS
Продолжительность : 1 ч. 34 м.
Вид битрейта : Постоянный
Битрейт : 1510 Кбит/сек
Каналы : 6 каналов
Расположение каналов : Front: L C R, Side: L R, LFE
Частота : 48,0 КГц
Битовая глубина : 24 бит
Метод сжатия : С потерями
Размер потока : 1021 Мбайт (23%)
Язык : Russian
Default : Да
Forced : Да

Меню
00:00:00.000 : en:Chapter 01
00:03:46.935 : en:Chapter 02
00:08:52.615 : en:Chapter 03
00:13:58.629 : en:Chapter 04
00:17:53.322 : en:Chapter 05
00:25:03.502 : en:Chapter 06
00:31:35.893 : en:Chapter 07
00:35:16.948 : en:Chapter 08
00:41:43.584 : en:Chapter 09
00:45:58.630 : en:Chapter 10
00:52:43.160 : en:Chapter 11
00:57:14.055 : en:Chapter 12
01:03:11.037 : en:Chapter 13
01:06:33.489 : en:Chapter 14
01:13:24.608 : en:Chapter 15
01:15:08.212 : en:Chapter 16
01:20:51.513 : en:Chapter 17
01:29:02.003 : en:Chapter 18

---[NoImage] x264 [info]: frame I:961 Avg QP:15.09 size:131605
---[NoImage] x264 [info]: frame P:31992 Avg QP:17.59 size: 55634
---[NoImage] x264 [info]: frame B:103079 Avg QP:19.17 size: 16628
---[NoImage] x264 [info]: consecutive B-frames: 3.0% 3.3% 10.8% 20.7% 14.9% 46.2% 1.1%
---[NoImage] x264 [info]: mb I I16..4: 11.7% 60.9% 27.5%
---[NoImage] x264 [info]: mb P I16..4: 1.4% 17.2% 2.5% P16..4: 24.4% 33.4% 16.6% 3.7% 0.3% skip: 0.4%
---[NoImage] x264 [info]: mb B I16..4: 0.1% 2.0% 0.3% B16..8: 31.1% 28.5% 6.7% direct: 7.6% skip:23.6% L0:35.0% L1:42.6% BI:22.4%
---[NoImage] x264 [info]: 8x8 transform intra:80.0% inter:49.1%
---[NoImage] x264 [info]: direct mvs spatial:99.5% temporal:0.5%
---[NoImage] x264 [info]: coded y,uvDC,uvAC intra: 96.9% 92.5% 79.5% inter: 38.9% 30.4% 14.2%
---[NoImage] x264 [info]: i16 v,h,dc,p: 5% 5% 28% 61%
---[NoImage] x264 [info]: i8 v,h,dc,ddl,ddr,vr,hd,vl,hu: 12% 11% 11% 9% 11% 12% 11% 12% 13%
---[NoImage] x264 [info]: i4 v,h,dc,ddl,ddr,vr,hd,vl,hu: 10% 21% 3% 7% 13% 13% 12% 10% 11%
---[NoImage] x264 [info]: i8c dc,h,v,p: 45% 22% 19% 15%
---[NoImage] x264 [info]: Weighted P-Frames: Y:17.1% UV:5.3%
---[NoImage] x264 [info]: ref P L0: 44.5% 15.8% 18.0% 6.3% 5.4% 3.5% 3.5% 2.3% 0.7% 0.1%
---[NoImage] x264 [info]: ref B L0: 85.2% 8.2% 2.7% 1.7% 1.0% 0.8% 0.4%
---[NoImage] x264 [info]: ref B L1: 97.6% 2.4%
---[NoImage] x264 [info]: kb/s:5104.76


Релиз от:



   Похожие торренты   Торрент   Размер 
В этой теме нет новых непрочитанных сообщений. Операция «Ы» и другие приключения Шурика (1965) BDRip-AVC от MediaClub

29 | 8

1.78 ГБ

В этой теме нет новых непрочитанных сообщений. Операция «Ы» и другие приключения Шурика (1965) BDRip от MediaClub | КПК

329 | 9

410.24 МБ

В этой теме нет новых непрочитанных сообщений. Операция «Ы» и другие приключения Шурика (1965) BDRip 720p от HQ-ViDEO

82 | 13

3.73 ГБ

В этой теме нет новых непрочитанных сообщений. Операция «Ы» и другие приключения Шурика (1965) BDRip от Youtracker

78 | 11

1.45 ГБ

В этой теме нет новых непрочитанных сообщений. Операция «Ы» и другие приключения Шурика (1965) BDRip-AVC от R.G. 25 Кадр

127 | 12

2.18 ГБ

В этой теме нет новых непрочитанных сообщений. Операция «Ы» и другие приключения Шурика (1965) BDRip от HQCLUB

1030 | 61

1.45 ГБ

В этой теме нет новых непрочитанных сообщений. Операция «Ы» и другие приключения Шурика (1965) BDRip-AVC от R.G. HD-Films | 60 fps

615 | 46

2.87 ГБ




Вы не можете начинать темы
Вы не можете отвечать на сообщения
Вы не можете редактировать свои сообщения
Вы не можете удалять свои сообщения
Вы не можете добавлять вложения

Перейти:  
Для Мосгорсуда, Роскомнадзора и рекламодателей: mosgorsud-torrent[собачка]yandex.ru
 Вход
ppkBB3cker v.2 © 2008-2014 @ PPK
[ Time : 0.023s | 16 Queries | GZIP : Off ]

Торрент трекер RUTOR.IN, Не можете зайти на rutor.org? Какой новый адрес рутор? Какое зеркало рутор? Не работает rutor.org и зеркала? Тогда наш торрент специально для вас. Rutor.in неофициальное зеркало rutor. В случае если у Вас заблокирован rutor или вдруг Вы не можете на него зайти, то Вы без труда сможете скачать бесплатно и без рекламы последние новинки кино, игр, сериалов и прочего у нас, на Rutor.in. Не нужно использовать прокси, чтобы зайти на рутор, достаточно воспользоваться нашим ресурсом. Все новые фильмы, игры, сериалы, книги и музыка за 2013 и 2014 годы через торрент бесплатно. Скачивайте фильмы в хорошем качестве, игры для пк, xbox, playstation без регистрации. У нас вы найдете новые Зарубежные сериалы и Русские сериалы 2013, 2014, 2015 годов. Оставайтесь с нами, качайте любимые фильмы, игры, сериалы, книги и музыку.