img image001 image001 image001 image001 image001 image001 image001 image001 image001 image001 image001 image001 image001 image001 image001

Planets Sun Sun Sun
Статистика раздачи
Автор: Снежана | Размер: 2.01 ГБ | Добавлен: 24 июл 2013
Раздают: 1    Качают: 2
Скачать торрент
Скачать торрент
Описание торрента

СообщениеДобавлено: 24 июл 2013 

#77

Жанр: драма
Год выпуска: 2012
Продолжительность: 01:18:45

Режиссёр: Александра Стреляная

В ролях: Таисия Крамми, Илья Ригин, Людмила Шевченко

Описание: Посреди шумной московской жизни ему всегда снилось незыблемое Северное море. На ветреном побережье она грезила небом и чем-то несбыточным. Однажды он решился и вырвался из суеты столицы. Тогда они наконец встретились. В этот момент началось их лето, наполненное сомнениями, радостями и приключениями, свойственными одной только юности. Ему как режиссеру во всем видится кино. Ей наивно кружит голову первая любовь. И лишь жители берега с любопытством наблюдают за тем, как крепнет их чувство. На прекраснейшем месте земли, Кольском полуострове, они обретут все, что искали среди дикой природы.


Сэмпл: http://multi-up.com/867511

Качество видео: DVB
Формат видео: MPEG-PS

Видео: MPEG2 Video, 720x576 (4:3), 25 fps, 3383 Kbps, 0.33 bit/pixel
Аудио: MPEG Audio, 48 kHz, 2 ch, 192 kbps

General
Complete name : C:Море_2012_DVB.mpg
Format : MPEG-PS
File size : 2.01 GiB
Duration : 1h 18mn
Overall bit rate mode : Variable
Overall bit rate : 3 648 Kbps

Video
ID : 224 (0xE0)
Format : MPEG Video
Format version : Version 2
Format profile : Main@Main
Format settings, BVOP : Yes
Format settings, Matrix : Custom
Format settings, GOP : M=3, N=12
Duration : 1h 18mn
Bit rate mode : Variable
Bit rate : 3 383 Kbps
Maximum bit rate : 15.0 Mbps
Width : 720 pixels
Height : 576 pixels
Display aspect ratio : 4:3
Frame rate : 25.000 fps
Standard : PAL
Color space : YUV
Chroma subsampling : 4:2:0
Bit depth : 8 bits
Scan type : Interlaced
Scan order : Top Field First
Compression mode : Lossy
Bits/(Pixel*Frame) : 0.326
Time code of first frame : 00:00:00:00
Time code source : Group of pictures header
Stream size : 1.86 GiB (93%)

Audio
ID : 192 (0xC0)
Format : MPEG Audio
Format version : Version 1
Format profile : Layer 2
Duration : 1h 18mn
Bit rate mode : Constant
Bit rate : 192 Kbps
Channel(s) : 2 channels
Sampling rate : 48.0 KHz
Compression mode : Lossy
Stream size : 108 MiB (5%)




   Похожие торренты   Торрент   Размер 
В этой теме нет новых непрочитанных сообщений. Северное море — мертвое море / Nordsee ist Mordsee (1976) DVDRip | L1

205 | 140

1.36 ГБ

В этой теме нет новых непрочитанных сообщений. Море тишины / Море спокойствия / Verder dan de maan (2003) DVDRip | P

7 | 19

1.46 ГБ

В этой теме нет новых непрочитанных сообщений. Северное море — мертвое море / Nordsee ist Mordsee (1976) DVDRip-AVC | L1

23 | 8

1.26 ГБ

В этой теме нет новых непрочитанных сообщений. Море дает, море забирает / Havet ger, havet tar (2013) BDRip 720p от CINEMANIA | L1

144 | 54

4.49 ГБ

В этой теме нет новых непрочитанных сообщений. Море дает, море забирает / Havet Ger, Havet Tar (2013) DVDRip от Brazzass

201 | 70

1.46 ГБ

В этой теме нет новых непрочитанных сообщений. Море (2012) WEB-DLRip

45 | 5

1.37 ГБ

В этой теме нет новых непрочитанных сообщений. Море дает, море забирает / Havet Ger, Havet Tar (2013) DVDRip | L1

1006 | 383

1.46 ГБ




Вы не можете начинать темы
Вы не можете отвечать на сообщения
Вы не можете редактировать свои сообщения
Вы не можете удалять свои сообщения
Вы не можете добавлять вложения

Перейти:  
Для Мосгорсуда, Роскомнадзора и рекламодателей: mosgorsud-torrent[собачка]yandex.ru
 Вход
ppkBB3cker v.2 © 2008-2014 @ PPK
[ Time : 0.037s | 14 Queries | GZIP : Off ]

Торрент трекер RUTOR.IN, Не можете зайти на rutor.org? Какой новый адрес рутор? Какое зеркало рутор? Не работает rutor.org и зеркала? Тогда наш торрент специально для вас. Rutor.in неофициальное зеркало rutor. В случае если у Вас заблокирован rutor или вдруг Вы не можете на него зайти, то Вы без труда сможете скачать бесплатно и без рекламы последние новинки кино, игр, сериалов и прочего у нас, на Rutor.in. Не нужно использовать прокси, чтобы зайти на рутор, достаточно воспользоваться нашим ресурсом. Все новые фильмы, игры, сериалы, книги и музыка за 2013 и 2014 годы через торрент бесплатно. Скачивайте фильмы в хорошем качестве, игры для пк, xbox, playstation без регистрации. У нас вы найдете новые Зарубежные сериалы и Русские сериалы 2013, 2014, 2015 годов. Оставайтесь с нами, качайте любимые фильмы, игры, сериалы, книги и музыку.