img image001 image001 image001 image001 image001 image001 image001 image001 image001 image001 image001 image001 image001 image001 image001

Planets Sun Sun Sun
Статистика раздачи
Автор: Снежана | Размер: 1.28 ГБ | Добавлен: 24 июл 2013
Раздают: 103    Качают: 13
Скачать торрент
Скачать торрент
Описание торрента

СообщениеДобавлено: 24 июл 2013 

#77

Информация о фильме
Название: Про уродов и людей
Год выхода: 1998
Жанр: экзистенциальная ретро-притча, драма
Режиссер: Алексей Балабанов
В ролях: Сергей Маковецкий, Динара Друкарова, Анжелика Неволина, Виктор Сухоруков, Алексей Дё, Чингиз Цыдендамбаев, Вадим Прохоров, Александр Мезенцев, Игорь Шибанов, Татьяна Полонская, Дарья Лесникова, Ольга Страумит, Ричард Богутский, Валерий Криштапенко, Евгений Ерохин, Юрий Гальцев, Борис Смолкин, Михаил Трясоруков, Валерий Филонов, Анвар Либабов, Юлия Пестрецова, Людмила Аржаникова, Илья Шакунов

О фильме:
Конец XIX века. Две благополучные петербургские семьи. Загадочный Иоган - владелец фотостудии в подвальном помещении, где создан некий фотографический театр маркиза де Сада. И фотографические открытки с униженной наготой женского тела, вызывающие похоть и злорадствующее торжество власти над ними. Взгляд фотографа, умеющий видеть в девочке ангельские кудри и милую улыбку, - и тот же взгляд, разлагающий тело, взгляд порнографа. Иоган, отмеченный дьяволом, Иоган, убивающий душу. Именно он постепенно разрушает благополучие семей и превращает обычных людей в уродов. И аромат порока охватывает мир...
Доп. информация: Изображение вирировано.

Сценарий: Алексей Балабанов

Операторы: Сергей Астахов, Валерий Ревич
Художник: Вера Зелинская
Музыка: Михаил Глинка, Модест Мусоргский, Сергей Прокофьев, Петр Чайковский
Награды: специальный приз за режиссерский профессионализм и цельное стилевое решение (Алексей Балабанов) ОРКФ «Кинотавр» (Сочи, 1998); гран-при фестиваля «Золотой грифон» ФФ в Санкт-Петербурге (1998); лауреат премии «Золотой петушок» за 1998 год в категории «Российский фильм года на широком экране»; национальные премии кинокритики и кинопрессы «Золотой Овен» за 1998 год в категориях "Лучшая режиссерская работа" (А.Балабанов), "Лучшая мужская роль" (С.Маковецкий), "Лучшая операторская работа" (С.Астахов), "Лучшая работа художника" (В.Зелинская); призы киноакадемии «Ника» за 1998 год в категориях "Лучший фильм", "Лучшая режиссерская работа" (А.Балабанов); «Медный всадник» - профессиональная премия «Ленфильма» за 1998 год в категории «Лучшая операторская работа» (С.Астахов, за фильмы «Про уродов и людей» и «Тоталитарный роман»)
Памяти Алексея Балабанова
Ограничения на просмотр: зрителям, достигшим 16 лет.

Исходник R5

Страна: Россия
Студия: "Кинокомпания СТВ", "Союзкино"
Продолжительность: 01:29:00
Перевод: не требуется

Файл
Кодек: h.264
Качество: DVDRip-AVC
Видео: 688x448 (1.632) @ 732x448 (анаморф), 25.000 fps, AVC, ~1793 Kbps, 0.233 bits/pixel
Звук: Русский, 48.0 KHz, AC3, 2 ch, 256 Kbps
Субтитры: нет

Общее
Уникальный идентификатор : 245590111543593277483037739356461160503 (0xB8C2EF5B4A2BE15BB9B2B75D25B75837)
Полное имя : D:FilmsPro_uropdov_i_ludei.1998.DVDRip-AVC.mkv
Формат : Matroska
Версия формата : Version 4 / Version 2
Размер файла : 1,28 Гбайт
Продолжительность : 1 ч. 28 м.
Общий поток : 2051 Кбит/сек
Дата кодирования : UTC 2013-05-20 17:55:07
Программа кодирования : mkvmerge v6.2.0 ('Promised Land') built on Apr 28 2013 12:22:01
Библиотека кодирования : libebml v1.3.0 + libmatroska v1.4.0

Видео
Идентификатор : 1
Формат : AVC
Формат/Информация : Advanced Video Codec
Профиль формата : High@L4.1
Параметр CABAC формата : Да
Параметр ReFrames формата : 16 кадров
Идентификатор кодека : V_MPEG4/ISO/AVC
Продолжительность : 1 ч. 28 м.
Битрейт : 1793 Кбит/сек
Ширина : 688 пикселей
Высота : 448 пикселей
Соотношение сторон : 16:10
Режим частоты кадров : Постоянный
Частота кадров : 25,000 кадров/сек
Цветовое пространство : YUV
Субдискретизация насыщенности : 4:2:0
Битовая глубина : 8 бит
Тип развёртки : Прогрессивная
Бит/(Пиксели*Кадры) : 0.233
Размер потока : 1,09 Гбайт (86%)
Библиотека кодирования : x264 core 130 r2273 b3065e6
Настройки программы : cabac=1 / ref=16 / deblock=1:0:0 / analyse=0x3:0x133 / me=umh / subme=10 / psy=1 / psy_rd=1.05:0.10 / mixed_ref=1 / me_range=32 / chroma_me=1 / trellis=2 / 8x8dct=1 / cqm=0 / deadzone=21,11 / fast_pskip=0 / chroma_qp_offset=-3 / threads=8 / lookahead_threads=2 / sliced_threads=0 / nr=0 / decimate=0 / interlaced=0 / bluray_compat=0 / constrained_intra=0 / bframes=12 / b_pyramid=2 / b_adapt=2 / b_bias=0 / direct=3 / weightb=1 / open_gop=0 / weightp=2 / keyint=250 / keyint_min=25 / scenecut=40 / intra_refresh=0 / rc=2pass / mbtree=0 / bitrate=1793 / ratetol=1.0 / qcomp=0.60 / qpmin=0 / qpmax=60 / qpstep=4 / cplxblur=20.0 / qblur=0.5 / ip_ratio=1.40 / pb_ratio=1.30 / aq=2:1.00
Default : Нет
Forced : Нет
Коэффициенты матрицы : BT.601

Аудио
Идентификатор : 2
Формат : AC-3
Формат/Информация : Audio Coding 3
Расширение режима : CM (complete main)
Параметр Endianness формата : Big
Идентификатор кодека : A_AC3
Продолжительность : 1 ч. 28 м.
Вид битрейта : Постоянный
Битрейт : 256 Кбит/сек
Каналы : 2 канала
Расположение каналов : Front: L R
Частота : 48,0 КГц
Битовая глубина : 16 бит
Метод сжатия : С потерями
Размер потока : 163 Мбайт (12%)
Язык : Russian
Default : Да
Forced : Нет

Меню
00:00:00.000 : en:Chapter 01
00:03:50.280 : en:Chapter 02
00:06:51.440 : en:Chapter 03
00:09:21.320 : en:Chapter 04
00:14:01.080 : en:Chapter 05
00:18:27.160 : en:Chapter 06
00:24:43.120 : en:Chapter 07
00:27:16.080 : en:Chapter 08
00:28:45.680 : en:Chapter 09
00:30:17.920 : en:Chapter 10
00:35:28.480 : en:Chapter 11
00:38:08.320 : en:Chapter 12
00:39:32.160 : en:Chapter 13
00:42:16.000 : en:Chapter 14
00:45:57.120 : en:Chapter 15
00:51:11.160 : en:Chapter 16
00:53:27.440 : en:Chapter 17
01:04:30.520 : en:Chapter 18
01:08:47.640 : en:Chapter 19
01:10:34.160 : en:Chapter 20
01:14:33.920 : en:Chapter 21
01:19:10.840 : en:Chapter 22
01:23:25.000 : en:Chapter 23
01:26:46.280 : en:Chapter 24
01:28:59.240 : en:Chapter 25


frame I:724 Avg QP:14.95 size: 46394
frame P:28906 Avg QP:17.85 size: 17568
frame B:103866 Avg QP:19.62 size: 6313



Релиз от: Temperest



   Похожие торренты   Торрент   Размер 
В этой теме нет новых непрочитанных сообщений. Про уродов и людей (1998) DVDRip

133 | 3

700 МБ

В этой теме нет новых непрочитанных сообщений. Про уродов и людей (1998) DVDRip от Pshichko66

923 | 40

1.46 ГБ

В этой теме нет новых непрочитанных сообщений. Про Уродов и Людей (1998) DVD5

57 | 10

4.17 ГБ

В этой теме нет новых непрочитанных сообщений. Раны / Rane (1998) DVDRip-AVC от Temperest

0 | 2

1.34 ГБ

В этой теме нет новых непрочитанных сообщений. Шоу уродов / Freakshow (2007) DVDRip

39 | 10

1.37 ГБ

В этой теме нет новых непрочитанных сообщений. Создатель уродов / The Mutations (1974) DVDRip | L1

55 | 12

1.46 ГБ

В этой теме нет новых непрочитанных сообщений. Баффало '66 / Buffalo '66 (1998) BDRip 720p от Temperest

0 | 7

7.15 ГБ




Вы не можете начинать темы
Вы не можете отвечать на сообщения
Вы не можете редактировать свои сообщения
Вы не можете удалять свои сообщения
Вы не можете добавлять вложения

Перейти:  
Для Мосгорсуда, Роскомнадзора и рекламодателей: mosgorsud-torrent[собачка]yandex.ru
 Вход
ppkBB3cker v.2 © 2008-2014 @ PPK
[ Time : 0.660s | 16 Queries | GZIP : On ]

Торрент трекер RUTOR.IN, Не можете зайти на rutor.org? Какой новый адрес рутор? Какое зеркало рутор? Не работает rutor.org и зеркала? Тогда наш торрент специально для вас. Rutor.in неофициальное зеркало rutor. В случае если у Вас заблокирован rutor или вдруг Вы не можете на него зайти, то Вы без труда сможете скачать бесплатно и без рекламы последние новинки кино, игр, сериалов и прочего у нас, на Rutor.in. Не нужно использовать прокси, чтобы зайти на рутор, достаточно воспользоваться нашим ресурсом. Все новые фильмы, игры, сериалы, книги и музыка за 2013 и 2014 годы через торрент бесплатно. Скачивайте фильмы в хорошем качестве, игры для пк, xbox, playstation без регистрации. У нас вы найдете новые Зарубежные сериалы и Русские сериалы 2013, 2014, 2015 годов. Оставайтесь с нами, качайте любимые фильмы, игры, сериалы, книги и музыку.